The Robert Cray Band - 4 Nights Of 40 Years Live (2015)

Download Now

The Robert Cray Band - 4 Nights Of 40 Years Live (2015)

The Robert Cray Band - 4 Nights Of 40 Years Live (2015)
DVD-9 | MPEG-2, NTSC 16:9 (720x480), 29.970 fps, 7700 kbps
DD 2.0, 48.0 KHz/16-bit, 256 kbps | ~ 5,78 Gb | Scans Included | RAR 5% Recovery
Blues, R&B | 01:34:23 | Mascot Music

"Contemporary blues icon Robert Cray will be celebrating his 40 years of performing with an incredible live release, 4 Nights of 40 Years Live on 28th August 2015. The 94 minute video in 4 Nights of 40 Years Live is a Cray Band convergence. Coming together are a mesmerizing blend of clips from the San Francisco Blues Festival, the Dutch TV show and the four concerts featured on the first CD. Between clips Cray comments on the band's history and his personal philosophy of music. There is also behind the scenes footage of the band collaborating with producer Jordan. And putting the Cray Band in perspective are interviews with Eric Clapton, Keith Richards, Bonnie Raitt, Jimmie Vaughan and Buddy Guy each giving their personal response to the music and the man..."

Wiki | Discogs | All Music
***************

The Robert Cray Band - 4 Nights Of 40 Years Live (2015)

Track List:

01. Intro / I Shiver
02. T-Bone Shuffle
03. Love Gone To Waste
04. I Guess I Showed Her
05. I'll Always Remember You
06. Your Good Thing Is About To End
07. Too Many Cooks
08. Wrap It Up
09. Won't Be Coming Home
10. Smoking Gun
11. Sittin' On Top of the World
12. Two Steps From The End
13. Bad Influence
14. These Things
15. Right Next Door (Because Of Me)
16. The Forecast (Calls For Pain)
17. Time Makes Two

General
Complete name : C:\_000\The Robert Cray Band - 4 Nights of 40 Years Live [2CD+DVD] (2015)\DVD\VIDEO_TS\VTS_01_0.VOB
Format
: MPEG-PS
File size
: 161 MiB
Duration
: 1mn 9s
Overall bit rate : 19.5 Mbps

Video
ID : 224 (0xE0)
Format
: MPEG Video
Format version : Version 2
Format profile : [email protected]
Format settings, BVOP : Yes
Format settings, Matrix : Custom
Format settings, GOP : M=3, N=18
Format settings, picture structure : Frame
Duration
: 1mn 9s
Bit rate
: 18.8 Mbps
Maximum bit rate : 7 700 Kbps
Width
: 720 pixels
Height
: 480 pixels
Display aspect ratio : 16:9
Frame rate
: 29.970 fps
Standard
: NTSC
Color space
: YUV
Chroma subsampling

: 4:2:0
Bit depth
: 8 bits
Scan type
: Interlaced
Scan order
: Top Field First
Compression mode : Lossy
Bits/(Pixel*Frame)

: 1.811
Time code of first frame : 00:00:00:00
Time code source : Group of pictures header
GOP, Open/Closed : Closed
Stream size
: 155 MiB (96%)

Audio
ID : 189 (0xBD)-128 (0x80)
Format
: AC-3
Format/Info
: Audio Coding 3
Mode extension : CM (complete main)
Format settings, Endianness : Big
Muxing mode
: DVD-Video
Duration
: 1mn 8s
Bit rate mode : Constant
Bit rate
: 384 Kbps
Channel(s)
: 2 channels
Channel positions: Front: L R
Sampling rate : 48.0 KHz
Bit depth
: 16 bits
Compression mode : Lossy
Delay relative to video : 66ms
Stream size
: 3.16 MiB (2%)

Text #1
ID : 189 (0xBD)-32 (0x20)
Format
: RLE
Format/Info
: Run-length encoding
Muxing mode
: DVD-Video
Delay relative to video : 66ms

Text #2
ID : 189 (0xBD)-33 (0x21)
Format
: RLE
Format/Info
: Run-length encoding
Muxing mode
: DVD-Video
Delay relative to video : 66ms

Text #3
ID : 189 (0xBD)-34 (0x22)
Format
: RLE
Format/Info
: Run-length encoding
Muxing mode
: DVD-Video
Delay relative to video : 66ms

Menu

General
Complete name : C:\_000\The Robert Cray Band - 4 Nights of 40 Years Live [2CD+DVD] (2015)\DVD\VIDEO_TS\VTS_01_1.VOB
Format
: MPEG-PS
File size
: 1 024 MiB
Duration
: 17mn 42s
Overall bit rate : 8 088 Kbps

Video
ID : 224 (0xE0)
Format
: MPEG Video
Format version : Version 2
Format profile : [email protected]
Format settings, BVOP : Yes
Format settings, Matrix : Custom
Format settings, GOP : M=3, N=18
Format settings, picture structure : Frame
Duration
: 17mn 42s
Bit rate
: 7 700 Kbps
Width
: 720 pixels
Height
: 480 pixels
Display aspect ratio : 16:9
Frame rate
: 29.970 fps
Standard
: NTSC
Color space
: YUV
Chroma subsampling

: 4:2:0
Bit depth
: 8 bits
Scan type
: Interlaced
Scan order
: Top Field First
Compression mode : Lossy
Bits/(Pixel*Frame)

: 0.743
Time code of first frame : 00:00:00;00
Time code source : Group of pictures header
GOP, Open/Closed : Closed
Stream size
: 971 MiB (95%)

Audio
ID : 189 (0xBD)-128 (0x80)
Format
: AC-3
Format/Info
: Audio Coding 3
Mode extension : CM (complete main)
Format settings, Endianness : Big
Muxing mode
: DVD-Video
Duration
: 17mn 41s
Bit rate mode : Constant
Bit rate
: 256 Kbps
Channel(s)
: 2 channels
Channel positions: Front: L R
Sampling rate : 48.0 KHz
Bit depth
: 16 bits
Compression mode : Lossy
Stream size
: 32.4 MiB (3%)

Menu

General
Complete name : C:\_000\The Robert Cray Band - 4 Nights of 40 Years Live [2CD+DVD] (2015)\DVD\VIDEO_TS\VTS_01_2.VOB
Format
: MPEG-PS
File size
: 1 024 MiB
Duration
: 17mn 41s
Overall bit rate : 8 089 Kbps

Video
ID : 224 (0xE0)
Format
: MPEG Video
Format version : Version 2
Format profile : [email protected]
Format settings, BVOP : Yes
Format settings, Matrix : Custom
Format settings, GOP : M=3, N=18
Format settings, picture structure : Frame
Duration
: 17mn 41s
Bit rate
: 7 700 Kbps
Width
: 720 pixels
Height
: 480 pixels
Display aspect ratio : 16:9
Frame rate
: 29.970 fps
Standard
: NTSC
Color space
: YUV
Chroma subsampling

: 4:2:0
Bit depth
: 8 bits
Scan type
: Interlaced
Scan order
: Top Field First
Compression mode : Lossy
Bits/(Pixel*Frame)

: 0.743
Time code of first frame : 00:17:42;14
Time code source : Group of pictures header
GOP, Open/Closed : Closed
Stream size
: 971 MiB (95%)

Audio
ID : 189 (0xBD)-128 (0x80)
Format
: AC-3
Format/Info
: Audio Coding 3
Mode extension : CM (complete main)
Format settings, Endianness : Big
Muxing mode
: DVD-Video
Duration
: 17mn 41s
Bit rate mode : Constant
Bit rate
: 256 Kbps
Channel(s)
: 2 channels
Channel positions: Front: L R
Sampling rate : 48.0 KHz
Bit depth
: 16 bits
Compression mode : Lossy
Delay relative to video : -637ms
Stream size
: 32.4 MiB (3%)

Menu

General
Complete name : C:\_000\The Robert Cray Band - 4 Nights of 40 Years Live [2CD+DVD] (2015)\DVD\VIDEO_TS\VTS_01_3.VOB
Format
: MPEG-PS
File size
: 1 024 MiB
Duration
: 17mn 41s
Overall bit rate : 8 089 Kbps

Video
ID : 224 (0xE0)
Format
: MPEG Video
Format version : Version 2
Format profile : [email protected]
Format settings, BVOP : Yes
Format settings, Matrix : Custom
Format settings, GOP : M=3, N=18
Format settings, picture structure : Frame
Duration
: 17mn 41s
Bit rate
: 7 700 Kbps
Width
: 720 pixels
Height
: 480 pixels
Display aspect ratio : 16:9
Frame rate
: 29.970 fps
Standard
: NTSC
Color space
: YUV
Chroma subsampling

: 4:2:0
Bit depth
: 8 bits
Scan type
: Interlaced
Scan order
: Top Field First
Compression mode : Lossy
Bits/(Pixel*Frame)

: 0.743
Time code of first frame : 00:35:24;10
Time code source : Group of pictures header
GOP, Open/Closed : Closed
Stream size
: 971 MiB (95%)

Audio
ID : 189 (0xBD)-128 (0x80)
Format
: AC-3
Format/Info
: Audio Coding 3
Mode extension : CM (complete main)
Format settings, Endianness : Big
Muxing mode
: DVD-Video
Duration
: 17mn 41s
Bit rate mode : Constant
Bit rate
: 256 Kbps
Channel(s)
: 2 channels
Channel positions: Front: L R
Sampling rate : 48.0 KHz
Bit depth
: 16 bits
Compression mode : Lossy
Delay relative to video : -515ms
Stream size
: 32.4 MiB (3%)

Menu

General
Complete name : C:\_000\The Robert Cray Band - 4 Nights of 40 Years Live [2CD+DVD] (2015)\DVD\VIDEO_TS\VTS_01_4.VOB
Format
: MPEG-PS
File size
: 1 024 MiB
Duration
: 17mn 42s
Overall bit rate : 8 088 Kbps

Video
ID : 224 (0xE0)
Format
: MPEG Video
Format version : Version 2
Format profile : [email protected]
Format settings, BVOP : Yes
Format settings, Matrix : Custom
Format settings, GOP : M=3, N=18
Format settings, picture structure : Frame
Duration
: 17mn 41s
Bit rate
: 7 700 Kbps
Width
: 720 pixels
Height
: 480 pixels
Display aspect ratio : 16:9
Frame rate
: 29.970 fps
Standard
: NTSC
Color space
: YUV
Chroma subsampling

: 4:2:0
Bit depth
: 8 bits
Scan type
: Interlaced
Scan order
: Top Field First
Compression mode : Lossy
Bits/(Pixel*Frame)

: 0.743
Time code of first frame : 00:53:06;06
Time code source : Group of pictures header
GOP, Open/Closed : Closed
Stream size
: 971 MiB (95%)

Audio
ID : 189 (0xBD)-128 (0x80)
Format
: AC-3
Format/Info
: Audio Coding 3
Mode extension : CM (complete main)
Format settings, Endianness : Big
Muxing mode
: DVD-Video
Duration
: 17mn 42s
Bit rate mode : Constant
Bit rate
: 256 Kbps
Channel(s)
: 2 channels
Channel positions: Front: L R
Sampling rate : 48.0 KHz
Bit depth
: 16 bits
Compression mode : Lossy
Delay relative to video : -455ms
Stream size
: 32.4 MiB (3%)

Menu

General
Complete name : C:\_000\The Robert Cray Band - 4 Nights of 40 Years Live [2CD+DVD] (2015)\DVD\VIDEO_TS\VTS_01_5.VOB
Format
: MPEG-PS
File size
: 1 024 MiB
Duration
: 17mn 41s
Overall bit rate : 8 089 Kbps

Video
ID : 224 (0xE0)
Format
: MPEG Video
Format version : Version 2
Format profile : [email protected]
Format settings, BVOP : Yes
Format settings, Matrix : Custom
Format settings, GOP : M=3, N=18
Format settings, picture structure : Frame
Duration
: 17mn 41s
Bit rate
: 7 700 Kbps
Width
: 720 pixels
Height
: 480 pixels
Display aspect ratio : 16:9
Frame rate
: 29.970 fps
Standard
: NTSC
Color space
: YUV
Chroma subsampling

: 4:2:0
Bit depth
: 8 bits
Scan type
: Interlaced
Scan order
: Top Field First
Compression mode : Lossy
Bits/(Pixel*Frame)

: 0.743
Time code of first frame : 01:10:48;00
Time code source : Group of pictures header
GOP, Open/Closed : Closed
Stream size
: 971 MiB (95%)

Audio
ID : 189 (0xBD)-128 (0x80)
Format
: AC-3
Format/Info
: Audio Coding 3
Mode extension : CM (complete main)
Format settings, Endianness : Big
Muxing mode
: DVD-Video
Duration
: 17mn 41s
Bit rate mode : Constant
Bit rate
: 256 Kbps
Channel(s)
: 2 channels
Channel positions: Front: L R
Sampling rate : 48.0 KHz
Bit depth
: 16 bits
Compression mode : Lossy
Delay relative to video : -268ms
Stream size
: 32.4 MiB (3%)

Menu

General
Complete name : C:\_000\The Robert Cray Band - 4 Nights of 40 Years Live [2CD+DVD] (2015)\DVD\VIDEO_TS\VTS_01_6.VOB
Format
: MPEG-PS
File size
: 346 MiB
Duration
: 5mn 59s
Overall bit rate : 8 084 Kbps

Video
ID : 224 (0xE0)
Format
: MPEG Video
Format version : Version 2
Format profile : [email protected]
Format settings, BVOP : Yes
Format settings, Matrix : Custom
Format settings, GOP : M=3, N=18
Format settings, picture structure : Frame
Duration
: 5mn 58s
Bit rate
: 7 700 Kbps
Width
: 720 pixels
Height
: 480 pixels
Display aspect ratio : 16:9
Frame rate
: 29.970 fps
Standard
: NTSC
Color space
: YUV
Chroma subsampling

: 4:2:0
Bit depth
: 8 bits
Scan type
: Interlaced
Scan order
: Top Field First
Compression mode : Lossy
Bits/(Pixel*Frame)

: 0.743
Time code of first frame : 01:28:30;16
Time code source : Group of pictures header
GOP, Open/Closed : Closed
Stream size
: 328 MiB (95%)

Audio
ID : 189 (0xBD)-128 (0x80)
Format
: AC-3
Format/Info
: Audio Coding 3
Mode extension : CM (complete main)
Format settings, Endianness : Big
Muxing mode
: DVD-Video
Duration
: 5mn 59s
Bit rate mode : Constant
Bit rate
: 256 Kbps
Channel(s)
: 2 channels
Channel positions: Front: L R
Sampling rate : 48.0 KHz
Bit depth
: 16 bits
Compression mode : Lossy
Delay relative to video : -714ms
Stream size
: 11.0 MiB (3%)

Menu

The Robert Cray Band - 4 Nights Of 40 Years Live (2015)

The Robert Cray Band - 4 Nights Of 40 Years Live (2015)

The Robert Cray Band - 4 Nights Of 40 Years Live (2015)

The Robert Cray Band - 4 Nights Of 40 Years Live (2015)

The Robert Cray Band - 4 Nights Of 40 Years Live (2015)

The Robert Cray Band - 4 Nights Of 40 Years Live (2015)

The Robert Cray Band - 4 Nights Of 40 Years Live (2015)

The Robert Cray Band - 4 Nights Of 40 Years Live (2015)

The Robert Cray Band - 4 Nights Of 40 Years Live (2015)

The Robert Cray Band - 4 Nights Of 40 Years Live (2015)

The Robert Cray Band - 4 Nights Of 40 Years Live (2015)

All thanks go to original releaser ...


DOWNLOAD LINKS
Buy Premium From My Links To Get Resumable Support & Max Speed & To Support Me

Rapidgator.net:
http://rapidgator.net/file/1645f6b4da98ea4a4a0c29c9a2effa01/vzv0v.T.R.C.B.4.N.O.40.Y.L.2015.part01.rar.html
http://rapidgator.net/file/5e704aa2e21030653be0481a486423af/vzv0v.T.R.C.B.4.N.O.40.Y.L.2015.part02.rar.html
http://rapidgator.net/file/64da324b47ebc7d4ea0e62d49df861c6/vzv0v.T.R.C.B.4.N.O.40.Y.L.2015.part03.rar.html
http://rapidgator.net/file/ff8cbb2bd6492be7814416c7af496b78/vzv0v.T.R.C.B.4.N.O.40.Y.L.2015.part04.rar.html
http://rapidgator.net/file/8dcc589b2222de0c6b1c843381bfa59a/vzv0v.T.R.C.B.4.N.O.40.Y.L.2015.part05.rar.html
http://rapidgator.net/file/48510cbb322f26a6b1b567a2a2b3de15/vzv0v.T.R.C.B.4.N.O.40.Y.L.2015.part06.rar.html
http://rapidgator.net/file/aa85018920ca4dd79c8236a7b0d47a9e/vzv0v.T.R.C.B.4.N.O.40.Y.L.2015.part07.rar.html
http://rapidgator.net/file/1ba212d0788b00bfd9c1a7cfff640d88/vzv0v.T.R.C.B.4.N.O.40.Y.L.2015.part08.rar.html
http://rapidgator.net/file/e7a8ab5fb79d7ef42962a16c26e5c902/vzv0v.T.R.C.B.4.N.O.40.Y.L.2015.part09.rar.html
http://rapidgator.net/file/38c10d89dbb72897b2d2abaa0aa0384e/vzv0v.T.R.C.B.4.N.O.40.Y.L.2015.part10.rar.html
http://rapidgator.net/file/2b73a51d3e13697c3422718411057178/vzv0v.T.R.C.B.4.N.O.40.Y.L.2015.part11.rar.html
http://rapidgator.net/file/b5f2007462a31c5472a894a3913878aa/vzv0v.T.R.C.B.4.N.O.40.Y.L.2015.part12.rar.html

Uploaded.net:
http://uploaded.net/file/dpvluzk2/vzv0v.T.R.C.B.4.N.O.40.Y.L.2015.part01.rar
http://uploaded.net/file/174xo02m/vzv0v.T.R.C.B.4.N.O.40.Y.L.2015.part02.rar
http://uploaded.net/file/81puk4qm/vzv0v.T.R.C.B.4.N.O.40.Y.L.2015.part03.rar
http://uploaded.net/file/gg76sbh1/vzv0v.T.R.C.B.4.N.O.40.Y.L.2015.part04.rar
http://uploaded.net/file/l8stckfy/vzv0v.T.R.C.B.4.N.O.40.Y.L.2015.part05.rar
http://uploaded.net/file/0bdnztnr/vzv0v.T.R.C.B.4.N.O.40.Y.L.2015.part06.rar
http://uploaded.net/file/rp20ucis/vzv0v.T.R.C.B.4.N.O.40.Y.L.2015.part07.rar
http://uploaded.net/file/2ce2o9kl/vzv0v.T.R.C.B.4.N.O.40.Y.L.2015.part08.rar
http://uploaded.net/file/otw8i3zl/vzv0v.T.R.C.B.4.N.O.40.Y.L.2015.part09.rar
http://uploaded.net/file/kiqp7wf8/vzv0v.T.R.C.B.4.N.O.40.Y.L.2015.part10.rar
http://uploaded.net/file/7iz1ej22/vzv0v.T.R.C.B.4.N.O.40.Y.L.2015.part11.rar
http://uploaded.net/file/1zx572jz/vzv0v.T.R.C.B.4.N.O.40.Y.L.2015.part12.rar

Uploadable.ch:
http://www.uploadable.ch/file/dPgM8Cf9xdPg/vzv0v.T.R.C.B.4.N.O.40.Y.L.2015.part01.rar
http://www.uploadable.ch/file/7NzmPjTwv6NA/vzv0v.T.R.C.B.4.N.O.40.Y.L.2015.part02.rar
http://www.uploadable.ch/file/QcVpK479akD8/vzv0v.T.R.C.B.4.N.O.40.Y.L.2015.part03.rar
http://www.uploadable.ch/file/6gaZ7MaQSHND/vzv0v.T.R.C.B.4.N.O.40.Y.L.2015.part04.rar
http://www.uploadable.ch/file/H8DrbkqEarTj/vzv0v.T.R.C.B.4.N.O.40.Y.L.2015.part05.rar
http://www.uploadable.ch/file/pvCYMmsHZK8f/vzv0v.T.R.C.B.4.N.O.40.Y.L.2015.part06.rar
http://www.uploadable.ch/file/4xYDy9XDSvY4/vzv0v.T.R.C.B.4.N.O.40.Y.L.2015.part07.rar
http://www.uploadable.ch/file/xkPNTZQ7A9EU/vzv0v.T.R.C.B.4.N.O.40.Y.L.2015.part08.rar
http://www.uploadable.ch/file/pj394FtJeCP5/vzv0v.T.R.C.B.4.N.O.40.Y.L.2015.part09.rar
http://www.uploadable.ch/file/3MjaPh36NjTG/vzv0v.T.R.C.B.4.N.O.40.Y.L.2015.part10.rar
http://www.uploadable.ch/file/SeEpgd6DBRuJ/vzv0v.T.R.C.B.4.N.O.40.Y.L.2015.part11.rar
http://www.uploadable.ch/file/jPeJXuE6pkPe/vzv0v.T.R.C.B.4.N.O.40.Y.L.2015.part12.rar

Links are Interchangeable - No Password - Single Extraction
Direct Download

Tags: Robert, Nights

The Robert Cray Band - 4 Nights Of 40 Years Live (2015) Download via Hotfile Rapidshare Fileserve Megaupload & FileSonic, The Robert Cray Band - 4 Nights Of 40 Years Live (2015) free torrent downloads included crack, serial, keygen.The Robert Cray Band - 4 Nights Of 40 Years Live (2015) Fast Download via Rapidshare Hotfile Fileserve Filesonic Megaupload, The Robert Cray Band - 4 Nights Of 40 Years Live (2015) Torrents and Emule Download or anything related.
Leave a Comment
Your Name:
E-Mail:
Add Comments:

Enter Code: