Bob Dylan - Self Portrait (1970)

Download Now

Bob Dylan - Self Portrait (1970)

Bob Dylan - Self Portrait (1970)
Rock | 1cd | EAC Rip | Flac + Cue + Log | covers
Columbia 88691924312.11 | rem: 2013 | 520Mb

Self Portrait is the tenth studio album by American singer-songwriter Bob Dylan, released on June 8, 1970 by Columbia Records. Self Portrait was Dylan's second double album, and features many cover versions of well-known pop and folk songs. Also included are a handful of instrumentals and original compositions. Most of the album is sung in the affected country crooning voice that Dylan had introduced a year earlier on Nashville Skyline.
Seen by some as intentionally surreal and even satirical at times, Self Portrait received extremely poor reviews upon release; Greil Marcus' opening sentence in his Rolling Stone review was: "What is this shit?"
Dylan has claimed in interviews that Self Portrait was something of a joke, far below the standards he set in the 1960s, and was made to get people off his back and end the "spokesman of a generation" tags.
Despite the negative reception, the album quickly went gold in the US, where it hit #4, and it gave Dylan yet another UK #1 hit before it fell down the charts. The album has since built a cult following and saw a retrospective positive re-evaluation with the release of The Bootleg Series Vol. 10: Another Self Portrait ~Wikipedia

Track listing
01. All the Tired Horses (3:13)
02. Alberta #1 (2:58)
03. I Forgot More Than You'll Ever Know (2:25)
04. Days Of 49 (5:29)
05. Early Mornin' Rain (3:38)
06. In Search Of Little Sadie (2:31)
07. Let It Be Me (3:01)
08. Little Sadie (2:02)
09. Woogie Boogie (2:09)
10. Belle Isle (2:33)
11. Living The Blues (2:44)
12. Like A Rolling Stone (5:22)
13. Copper Kettle (The Pale Moonlight) (3:36)
14. Gotta Travel On (3:11)
15. Blue Moon (2:31)
16. The Boxer (2:49)
17. Quinn The Eskimo (The Mighty Quinn) (2:50)
18. Take Me As I Am (Or Let Me Go) (3:04)
19. Take A Message To Mary (2:47)
20. It Hurts Me Too (3:16)
21. Minstrel Boy (3:35)
22. She Belongs To Me (2:46)
23. Wigwam (3:12)
24. Alberta #2 (3:15)
~ (74:57)

Exact Audio Copy V1.0 beta 3 from 29. August 2011

EAC extraction logfile from 3. May 2014, 18:05

Bob Dylan / Self Potrait

Used drive : PLEXTOR DVDR PX-L890SA Adapter: 1 ID: 0

Read mode : Secure
Utilize accurate stream : Yes
Defeat audio cache : Yes
Make use of C2 pointers : No

Read offset correction

: 6
Overread into Lead-In and Lead-Out : No
Fill up missing offset samples with silence : Yes
Delete leading and trailing silent blocks : No
Null samples used in CRC calculations : Yes
Used interface
: Native Win32 interface for Win NT & 2000

Used output format : User Defined Encoder
Selected bitrate : 768 kBit/s
Quality : High
Add ID3 tag : No
Command line compressor : G:\Program Files\Exact Audio Copy\FLAC\FLAC.EXE
Additional command line options : -V -8 -T "Date=%year%" -T "Genre=%genre%" %source%

TOC of the extracted CD Track | Start | Length | Start sector | End sector
--1 | 0:00.00 | 3:13.07 | 0 | 14481 2 | 3:13.07 | 2:57.64 | 14482 | 27820 3 | 6:10.71 | 2:25.17 | 27821 | 38712 4 | 8:36.13 | 5:28.53 | 38713 | 63365 5 | 14:04.66 | 3:37.74 | 63366 | 79714 6 | 17:42.65 | 2:31.21 | 79715 | 91060 7 | 20:14.11 | 3:01.18 | 91061 | 104653 8 | 23:15.29 | 2:01.44 | 104654 | 113772 9 | 25:16.73 | 2:08.61 | 113773 | 123433
10 | 27:25.59 | 2:33.08 | 123434 | 134916
11 | 29:58.67 | 2:44.10 | 134917 | 147226
12 | 32:43.02 | 5:21.55 | 147227 | 171356
13 | 38:04.57 | 3:36.12 | 171357 | 187568
14 | 41:40.69 | 3:11.12 | 187569 | 201905
15 | 44:52.06 | 2:30.39 | 201906 | 213194
16 | 47:22.45 | 2:48.48 | 213195 | 225842
17 | 50:11.18 | 2:49.38 | 225843 | 238555
18 | 53:00.56 | 3:04.23 | 238556 | 252378
19 | 56:05.04 | 2:47.30 | 252379 | 264933
20 | 58:52.34 | 3:16.20 | 264934 | 279653
21 | 62:08.54 | 3:35.14 | 279654 | 295792
22 | 65:43.68 | 2:45.67 | 295793 | 308234
23 | 68:29.60 | 3:11.62 | 308235 | 322621
24 | 71:41.47 | 3:15.24 | 322622 | 337270

Range status and errors

Selected range Filename H:\MUSIC\DYLAN\1970. Bob Dylan - Self Portrait (Columbia 88691924312.11, EU)\Self Potrait.wav Peak level 97.6 %
Extraction speed 6.8 X
Range quality 99.9 %
Test CRC 285D5F61
Copy CRC 285D5F61
Copy OK

No errors occurred


AccurateRip summary

Track 1 accurately ripped (confidence 25) [6A0EDAA3] (AR v2)
Track 2 accurately ripped (confidence 24) [C84E7E40] (AR v2)
Track 3 accurately ripped (confidence 25) [9AAF6E99] (AR v2)
Track 4 accurately ripped (confidence 25) 01E90A3 (AR v2)
Track 5 accurately ripped (confidence 25) [EFD9343D] (AR v2)
Track 6 accurately ripped (confidence 25) [28B84827] (AR v2)
Track 7 accurately ripped (confidence 25) 1B51EFE (AR v2)
Track 8 accurately ripped (confidence 25) [FDD985EE] (AR v2)
Track 9 accurately ripped (confidence 25) [E73F5CDE] (AR v2)
Track 10 accurately ripped (confidence 25) [0E68E187] (AR v2)
Track 11 accurately ripped (confidence 25) 00F6916 (AR v2)
Track 12 accurately ripped (confidence 25) [765BFB24] (AR v2)
Track 13 accurately ripped (confidence 16) [8FDF7ACF] (AR v2)
Track 14 accurately ripped (confidence 25) [3CB483B0] (AR v2)
Track 15 accurately ripped (confidence 25) [F1857E56] (AR v2)
Track 16 accurately ripped (confidence 25) [F81970A0] (AR v2)
Track 17 accurately ripped (confidence 25) [3E9BF077] (AR v2)
Track 18 accurately ripped (confidence 25) [23D37CC4] (AR v2)
Track 19 accurately ripped (confidence 25) 69BA609 (AR v2)
Track 20 accurately ripped (confidence 24) [1DEA6C5F] (AR v2)
Track 21 accurately ripped (confidence 25) [099D25B5] (AR v2)
Track 22 accurately ripped (confidence 24) [0AE08C94] (AR v2)
Track 23 accurately ripped (confidence 25) [7D50FDED] (AR v2)
Track 24 accurately ripped (confidence 24) [886E5E15] (AR v2)

All tracks accurately ripped

End of status report

==== Log checksum A4E529EFF7D7436108FE2AD9D2159B62B7E6E1B330B2E57FD634C51B232DC038 ====

[CUETools log; Date: 13.05.2014 17:52:45; Version: 2.1.2a]
[CTDB TOCID: 18wIWxmL.0P7HYf4M7SK6UgGNAI-] found.[ CTDBID ] Status477e21a (15/41) No match[5c0362dd] (25/41) Accurately ripped[083d3103] (01/41) No match
[AccurateRip ID: 0040ac8d-045d1c70-52119018] found.
Track [ CRC ] Status
01 [6a9d9a2f] (02/53) Accurately ripped
02 [06df781b] (02/52) Accurately ripped
03 [6cc5928f] (02/53) Accurately ripped
04 [103fa50d] (02/53) Accurately ripped
05 [55a8ccec] (02/53) Accurately ripped
06 [706c3a29] (02/53) Accurately ripped
07 [4ed8a639] (02/53) Accurately ripped
08 [d73e15dd] (02/53) Accurately ripped
09 [4b24e9f9] (02/53) Accurately ripped
10 [739bc748] (02/53) Accurately ripped
11 [d6466fd2] (02/53) Accurately ripped
12 [f7fb62fd] (02/53) Accurately ripped
13 [1c9cdc51] (00/53) No match but offset
14 [6954bdd2] (02/53) Accurately ripped
15 a1de53d (02/53) Accurately ripped
16 [355a580d] (02/53) Accurately ripped
17 [f3c9748b] (02/53) Accurately ripped
18 [e228aec1] (02/53) Accurately ripped
19 [ed87cb3b] (02/53) Accurately ripped
20 [6e87da40] (02/52) Accurately ripped
21 d75777a (02/53) Accurately ripped
22 [4023b266] (02/52) Accurately ripped
23 [8a68a163] (02/53) Accurately ripped
24 [7e8c95e1] (02/52) Accurately ripped
AccurateRip v2:
01 [6a0edaa3] (25/53) Accurately ripped
02 [c84e7e40] (24/52) Accurately ripped
03 [9aaf6e99] (25/53) Accurately ripped
04 01e90a3 (25/53) Accurately ripped
05 [efd9343d] (25/53) Accurately ripped
06 [28b84827] (25/53) Accurately ripped
07 1b51efe (25/53) Accurately ripped
08 [fdd985ee] (25/53) Accurately ripped
09 [e73f5cde] (25/53) Accurately ripped
10 [0e68e187] (25/53) Accurately ripped
11 00f6916 (25/53) Accurately ripped
12 [765bfb24] (25/53) Accurately ripped
13 [8fdf7acf] (16/53) Accurately ripped
14 [3cb483b0] (25/53) Accurately ripped
15 [f1857e56] (25/53) Accurately ripped
16 [f81970a0] (25/53) Accurately ripped
17 [3e9bf077] (25/53) Accurately ripped
18 [23d37cc4] (25/53) Accurately ripped
19 69ba609 (25/53) Accurately ripped
20 [1dea6c5f] (24/52) Accurately ripped
21 [099d25b5] (25/53) Accurately ripped
22 [0ae08c94] (24/52) Accurately ripped
23 [7d50fded] (25/53) Accurately ripped
24 [886e5e15] (24/52) Accurately ripped
Offsetted by 12:
01 [daf8221f] (00/53) No match but offset
02 [04cd49d7] (00/52) No match but offset
03 [33636653] (00/53) No match but offset
04 [914cc2f9] (00/53) No match but offset
05 [a7f53630] (00/53) No match but offset
06 [63e0156d] (00/53) No match but offset
07 [187917c5] (00/53) No match but offset
08 [4930d021] (00/53) No match but offset
09 [49683d2f] (00/53) No match but offset
10 [78938c66] (00/53) No match but offset
11 [14d77888] (00/53) No match but offset
12 [381d2818] (00/53) No match but offset
13 [851f40b1] (00/53) No match but offset
14 [ea4af0fd] (00/53) No match but offset
15 [2510fca9] (00/53) No match but offset
16 [aa90ba9a] (00/53) No match but offset
17 97c129a (00/53) No match but offset
18 [41e22033] (00/53) No match but offset
19 [3eaa956c] (00/53) No match but offset
20 [764e823d] (00/52) No match but offset
21 [f77129a2] (00/53) No match but offset
22 [7c91ad3a] (00/52) No match but offset
23 [f86f6c61] (00/53) No match but offset
24 [6455949f] (00/52) No match but offset

Track Peak [ CRC32 ] [W/O NULL] [ LOG ]
-- 97,6 [285D5F61] [9130D631] CRC32
01 93,6 [F577D8DC] [D44A302B]
02 93,7 [C4728CCB] [C2168623]
03 93,4 [6152C8A4] [44CDC2C4]
04 93,8 [551EF93E] [DD97862C]
05 93,9 [0EB6C7DE] [FE49B99C]
06 94,5 [DED34D9D] [117153ED]
07 93,8 [57B3EF68] [F2A9A60A]
08 97,6 [F1A261BF] [DE89BEB6]
09 94,2 [05317D03] [C414EFCE]
10 94,1 [34D9756F] [8B7E672F]
11 93,9 [F9713E33] [C8359725]
12 93,7 [37E8F8C6] [4242E0F4]
13 93,6 [04B76673] [8C137A32]
14 93,7 [DDB999E9] [5419AA16]
15 93,5 [C5DE0E48] [EC43EC2A]
16 93,5 [C18CAEA8] [177FE12A]
17 93,6 [AC1F859C] [866FC4BB]
18 93,4 [5291261F] [6A39B31D]
19 93,5 [219D350C] [05CC9C89]
20 93,4 [D23ACA03] [DDB12E19]
21 93,1 [2DA31239] [0051CFB4]
22 93,4 [88AB1C88] [94F8BF75]
23 93,8 51DA30A [A6C48BF9]
24 93,4 [3A006953] [35C14BB6]

Thx to snakesharmer
password: asd
DOWNLOAD LINKS
Buy Premium From My Links To Get Resumable Support & Max Speed & To Support Me


Links are Interchangeable - No Password - Single Extraction
Direct Download

Tags: Portrait

Bob Dylan - Self Portrait (1970) Download via Hotfile Rapidshare Fileserve Megaupload & FileSonic, Bob Dylan - Self Portrait (1970) free torrent downloads included crack, serial, keygen.Bob Dylan - Self Portrait (1970) Fast Download via Rapidshare Hotfile Fileserve Filesonic Megaupload, Bob Dylan - Self Portrait (1970) Torrents and Emule Download or anything related.
Leave a Comment
Your Name:
E-Mail:
Add Comments:

Enter Code: