The Who - Live At Hull 1970 (2012) [2CD] {Geffen Records}

Download Now


The Who - Live At Hull 1970 (2012) [2CD] {Geffen Records}
The Who - Live At Hull 1970 (2012) [2CD] {Geffen Records}
EAC rip (secure mode) | FLAC (tracks)+CUE+LOG -> 713 Mb | MP3 @320 -> 267 Mb
Full Artwork @ 600 dpi (jpg) -> 136 Mb | 5% repair rar
© 2012 Geffen Records / Universal | B0017696-02
Rock / Classic Rock / British Invasion / British Psychedelia

"2012 two CD release, an edited version of the concert originally available in the Super Deluxe Live At Hull box set. Live At Hull is a warts-and-all document - that strange popping sound noticeable at times is the sound of Keith Moon's frenzied drumstick attack making contact with the overhead mic. But after four decades of being neglected it's a document to savor, capturing The Who at their performing pinnacle and is presented here in edited form."

The Who - Live At Hull 1970 (2012) [2CD] {Geffen Records}


tracklist:
CD1

01 - Heaven And Hell
02 - I Can't Explain
03 - Fortune Teller
04 - Tattoo
05 - Young Man Blues
06 - Substitute
07 - Happy Jack
08 - I'm A Boy
09 - A Quick One, While He's Away
10 - Summertime Blues
11 - Shakin' All Over
12 - My Generation

The Who - Live At Hull 1970 (2012) [2CD] {Geffen Records}


CD2
01 - Overture
02 - It's A Boy
03 - 1921
04 - Amazing Journey
05 - Sparks
06 - Eyesight To The Blind (The Hawker)
07 - Christmas
08 - The Acid Queen
09 - Pinball Wizard
10 - Do You Think It's Alright
11 - Fiddle About
12 - Tommy Can You Hear Me
13 - There's A Doctor
14 - Go To The Mirror!
15 - Smash The Mirror
16 - Miracle Cure
17 - Sally Simpson
18 - I'm Free
19 - Tommy's Holiday Camp
20 - We're Not Gonna Take It

Exact Audio Copy V1.1 from 23. June 2015

EAC extraction logfile from 19. July 2015, 23:05

The Who / Live At Hull 1970 (CD1)

Used drive : ASUS DRW-24B1ST i Adapter: 1 ID: 0

Read mode : Secure
Utilize accurate stream : Yes
Defeat audio cache : Yes
Make use of C2 pointers : No

Read offset correction

: 6
Overread into Lead-In and Lead-Out : No
Fill up missing offset samples with silence : Yes
Delete leading and trailing silent blocks : No
Null samples used in CRC calculations : Yes
Used interface
: Native Win32 interface for Win NT & 2000
Gap handling
: Appended to previous track

Used output format : User Defined Encoder
Selected bitrate : 128 kBit/s
Quality : High
Add ID3 tag : No
Command line compressor : C:\Program Files (x86)\Exact Audio Copy\Flac\flac.exe
Additional command line options : -8 -V -T "ARTIST=%artist%" -T "TITLE=%title%" -T "ALBUM=%albumtitle%" -T "DATE=%year%" -T "TRACKNUMBER=%tracknr%" -T "TOTALTRACKS=%numtracks%" -T "GENRE=%genre%" -T "ALBUMARTIST=%albumartist%" -T "ALBUM ARTIST=%albumartist%" -T "COMMENT=EAC Secure Mode, Test & Copy, AccurateRip, FLAC -8" %source%

TOC of the extracted CD Track | Start | Length | Start sector | End sector
--1 | 0:00.00 | 4:04.36 | 0 | 18335 2 | 4:04.36 | 2:50.67 | 18336 | 31152 3 | 6:55.28 | 2:35.04 | 31153 | 42781 4 | 9:30.32 | 3:01.71 | 42782 | 56427 5 | 12:32.28 | 5:41.41 | 56428 | 82043 6 | 18:13.69 | 2:07.48 | 82044 | 91616 7 | 20:21.42 | 2:12.49 | 91617 | 101565 8 | 22:34.16 | 2:47.71 | 101566 | 114161 9 | 25:22.12 | 9:50.42 | 114162 | 158453
10 | 35:12.54 | 3:42.63 | 158454 | 175166
11 | 38:55.42 | 5:08.64 | 175167 | 198330
12 | 44:04.31 | 15:57.56 | 198331 | 270161

Track 1 Filename D:\_Post\Who\CD1\01 - Heaven And Hell.wav Pre-gap length 0:00:02.00 Peak level 100.0 %
Extraction speed 5.6 X
Track quality 100.0 %
Test CRC C4872EAE
Copy CRC C4872EAE
Accurately ripped (confidence 88) [4E06B538] (AR v2)
Copy OK

Track 2 Filename D:\_Post\Who\CD1\02 - I Can't Explain.wav Peak level 98.1 %
Extraction speed 5.7 X
Track quality 100.0 %
Test CRC 31F7E2C1
Copy CRC 31F7E2C1
Accurately ripped (confidence 88) [CAC0D745] (AR v2)
Copy OK

Track 3 Filename D:\_Post\Who\CD1\03 - Fortune Teller.wav Peak level 100.0 %
Extraction speed 4.5 X
Track quality 99.9 %
Test CRC CEA90803
Copy CRC CEA90803
Accurately ripped (confidence 88) [346845E3] (AR v2)
Copy OK

Track 4 Filename D:\_Post\Who\CD1\04 - Tattoo.wav Peak level 99.9 %
Extraction speed 5.1 X
Track quality 99.9 %
Test CRC 5F77E84A
Copy CRC 5F77E84A
Accurately ripped (confidence 88) [88A2526F] (AR v2)
Copy OK

Track 5 Filename D:\_Post\Who\CD1\05 - Young Man Blues.wav Peak level 97.3 %
Extraction speed 7.2 X
Track quality 100.0 %
Test CRC 3D9436B3
Copy CRC 3D9436B3
Accurately ripped (confidence 87) [0A23F42D] (AR v2)
Copy OK

Track 6 Filename D:\_Post\Who\CD1\06 - Substitute.wav Peak level 98.8 %
Extraction speed 6.6 X
Track quality 100.0 %
Test CRC F67C45B2
Copy CRC F67C45B2
Accurately ripped (confidence 88) [8121A8ED] (AR v2)
Copy OK

Track 7 Filename D:\_Post\Who\CD1\07 - Happy Jack.wav Peak level 99.9 %
Extraction speed 6.9 X
Track quality 100.0 %
Test CRC 7A01D2CA
Copy CRC 7A01D2CA
Accurately ripped (confidence 88) [796E6810] (AR v2)
Copy OK

Track 8 Filename D:\_Post\Who\CD1\08 - I'm A Boy.wav Peak level 99.0 %
Extraction speed 5.8 X
Track quality 99.9 %
Test CRC 3780DF45
Copy CRC 3780DF45
Accurately ripped (confidence 88) [DA0E8CDF] (AR v2)
Copy OK

Track 9 Filename D:\_Post\Who\CD1\09 - A Quick One, While He's Away.wav Peak level 98.5 %
Extraction speed 8.8 X
Track quality 100.0 %
Test CRC 57465EC7
Copy CRC 57465EC7
Accurately ripped (confidence 88) BCC1E3E (AR v2)
Copy OK

Track 10 Filename D:\_Post\Who\CD1\10 - Summertime Blues.wav Peak level 99.1 %
Extraction speed 8.6 X
Track quality 100.0 %
Test CRC 76EEA9EB
Copy CRC 76EEA9EB
Accurately ripped (confidence 89) [16D94C4C] (AR v2)
Copy OK

Track 11 Filename D:\_Post\Who\CD1\11 - Shakin' All Over.wav Peak level 98.1 %
Extraction speed 9.2 X
Track quality 100.0 %
Test CRC 648828AC
Copy CRC 648828AC
Accurately ripped (confidence 89) [605D8811] (AR v2)
Copy OK

Track 12 Filename D:\_Post\Who\CD1\12 - My Generation.wav Peak level 100.0 %
Extraction speed 10.6 X
Track quality 100.0 %
Test CRC 1190E0A4
Copy CRC 1190E0A4
Accurately ripped (confidence 88) [0FB46F7D] (AR v2)
Copy OK

All tracks accurately ripped

No errors occurred

End of status report

- CUETools DB Plugin V2.1.6

[CTDB TOCID: .BUeZJO.vrzNES9v1YHenjV0PJQ-] found
Submit result: .BUeZJO.vrzNES9v1YHenjV0PJQ- has been confirmed
Track | CTDB Status
1 | (69/70) Accurately ripped
2 | (69/70) Accurately ripped
3 | (69/70) Accurately ripped
4 | (69/70) Accurately ripped
5 | (67/70) Accurately ripped
6 | (69/70) Accurately ripped
7 | (69/70) Accurately ripped
8 | (69/70) Accurately ripped
9 | (69/70) Accurately ripped
10 | (68/70) Accurately ripped
11 | (66/70) Accurately ripped
12 | (68/70) Accurately ripped

==== Log checksum 4AC5468B7E8B65DD6744CFED2EA0E9E0E12EFF355A6E2A9EC101C6D409728920 ====

Exact Audio Copy V1.1 from 23. June 2015

EAC extraction logfile from 19. July 2015, 23:58

The Who / Live At Hull 1970 (CD2)

Used drive : ASUS DRW-24B1ST i Adapter: 1 ID: 0

Read mode : Secure
Utilize accurate stream : Yes
Defeat audio cache : Yes
Make use of C2 pointers : No

Read offset correction

: 6
Overread into Lead-In and Lead-Out : No
Fill up missing offset samples with silence : Yes
Delete leading and trailing silent blocks : No
Null samples used in CRC calculations : Yes
Used interface
: Native Win32 interface for Win NT & 2000
Gap handling
: Appended to previous track

Used output format : User Defined Encoder
Selected bitrate : 128 kBit/s
Quality : High
Add ID3 tag : No
Command line compressor : C:\Program Files (x86)\Exact Audio Copy\Flac\flac.exe
Additional command line options : -8 -V -T "ARTIST=%artist%" -T "TITLE=%title%" -T "ALBUM=%albumtitle%" -T "DATE=%year%" -T "TRACKNUMBER=%tracknr%" -T "TOTALTRACKS=%numtracks%" -T "GENRE=%genre%" -T "ALBUMARTIST=%albumartist%" -T "ALBUM ARTIST=%albumartist%" -T "COMMENT=EAC Secure Mode, Test & Copy, AccurateRip, FLAC -8" %source%

TOC of the extracted CD Track | Start | Length | Start sector | End sector
--1 | 0:00.00 | 5:30.02 | 0 | 24751 2 | 5:30.02 | 0:43.00 | 24752 | 27976 3 | 6:13.02 | 2:28.25 | 27977 | 39101 4 | 8:41.27 | 3:18.44 | 39102 | 53995 5 | 11:59.71 | 4:14.28 | 53996 | 73073 6 | 16:14.24 | 1:56.24 | 73074 | 81797 7 | 18:10.48 | 3:18.31 | 81798 | 96678 8 | 21:29.04 | 3:33.06 | 96679 | 112659 9 | 25:02.10 | 2:47.53 | 112660 | 125237
10 | 27:49.63 | 0:22.68 | 125238 | 126955
11 | 28:12.56 | 1:14.20 | 126956 | 132525
12 | 29:27.01 | 0:56.71 | 132526 | 136796
13 | 30:23.72 | 0:22.43 | 136797 | 138489
14 | 30:46.40 | 3:32.31 | 138490 | 154420
15 | 34:18.71 | 1:22.14 | 154421 | 160584
16 | 35:41.10 | 0:12.71 | 160585 | 161555
17 | 35:54.06 | 4:08.23 | 161556 | 180178
18 | 40:02.29 | 2:24.28 | 180179 | 191006
19 | 42:26.57 | 0:59.70 | 191007 | 195501
20 | 43:26.52 | 8:18.46 | 195502 | 232897

Track 1 Filename D:\_Post\Who\CD2\01 - Overture.wav Pre-gap length 0:00:02.00 Peak level 98.1 %
Extraction speed 1.7 X
Track quality 99.9 %
Test CRC D623CB1D
Copy CRC D623CB1D
Accurately ripped (confidence 86) [D22C3AE3] (AR v2)
Copy OK

Track 2 Filename D:\_Post\Who\CD2\02 - It's A Boy.wav Peak level 96.8 %
Extraction speed 1.4 X
Track quality 100.0 %
Test CRC D4A09A69
Copy CRC D4A09A69
Accurately ripped (confidence 87) [C0D5D909] (AR v2)
Copy OK

Track 3 Filename D:\_Post\Who\CD2\03 - 1921.wav Peak level 97.8 %
Extraction speed 2.2 X
Track quality 100.0 %
Test CRC 6837632F
Copy CRC 6837632F
Accurately ripped (confidence 87) [6C1E4C85] (AR v2)
Copy OK

Track 4 Filename D:\_Post\Who\CD2\04 - Amazing Journey.wav Peak level 98.6 %
Extraction speed 2.4 X
Track quality 100.0 %
Test CRC 89650D1F
Copy CRC 89650D1F
Accurately ripped (confidence 87) [A3A3858E] (AR v2)
Copy OK

Track 5 Filename D:\_Post\Who\CD2\05 - Sparks.wav Peak level 100.0 %
Extraction speed 2.6 X
Track quality 100.0 %
Test CRC F093DB1A
Copy CRC F093DB1A
Accurately ripped (confidence 87) [888B0590] (AR v2)
Copy OK

Track 6 Filename D:\_Post\Who\CD2\06 - Eyesight To The Blind (The Hawker).wav Peak level 98.2 %
Extraction speed 2.4 X
Track quality 100.0 %
Test CRC E7E0C33C
Copy CRC E7E0C33C
Accurately ripped (confidence 87) [4B9D4C1A] (AR v2)
Copy OK

Track 7 Filename D:\_Post\Who\CD2\07 - Christmas.wav Peak level 99.9 %
Extraction speed 2.8 X
Track quality 100.0 %
Test CRC 1FD8FBEE
Copy CRC 1FD8FBEE
Accurately ripped (confidence 86) [7AAF6CCF] (AR v2)
Copy OK

Track 8 Filename D:\_Post\Who\CD2\08 - The Acid Queen.wav Peak level 99.2 %
Extraction speed 2.9 X
Track quality 100.0 %
Test CRC B68256BC
Copy CRC B68256BC
Accurately ripped (confidence 86) [19FEA87F] (AR v2)
Copy OK

Track 9 Filename D:\_Post\Who\CD2\09 - Pinball Wizard.wav Peak level 98.4 %
Extraction speed 2.9 X
Track quality 100.0 %
Test CRC F2C3E752
Copy CRC F2C3E752
Accurately ripped (confidence 87) [7DA9D896] (AR v2)
Copy OK

Track 10 Filename D:\_Post\Who\CD2\10 - Do You Think It's Alright.wav Peak level 95.6 %
Extraction speed 0.5 X
Track quality 99.5 %
Test CRC 3FCE539C
Copy CRC 3FCE539C
Accurately ripped (confidence 87) [0827E49D] (AR v2)
Copy OK

Track 11 Filename D:\_Post\Who\CD2\11 - Fiddle About.wav Peak level 98.8 %
Extraction speed 2.4 X
Track quality 100.0 %
Test CRC 65F87BED
Copy CRC 65F87BED
Accurately ripped (confidence 86) [C5682C7C] (AR v2)
Copy OK

Track 12 Filename D:\_Post\Who\CD2\12 - Tommy Can You Hear Me.wav Peak level 83.1 %
Extraction speed 2.2 X
Track quality 100.0 %
Test CRC B335DB66
Copy CRC B335DB66
Accurately ripped (confidence 86) [34D8242D] (AR v2)
Copy OK

Track 13 Filename D:\_Post\Who\CD2\13 - There's A Doctor.wav Peak level 90.7 %
Extraction speed 0.5 X
Track quality 99.5 %
Test CRC 449F70E8
Copy CRC 449F70E8
Accurately ripped (confidence 87) [0516C523] (AR v2)
Copy OK

Track 14 Filename D:\_Post\Who\CD2\14 - Go To The Mirror!.wav Peak level 99.6 %
Extraction speed 3.2 X
Track quality 100.0 %
Test CRC 21FA667D
Copy CRC 21FA667D
Accurately ripped (confidence 85) [0A261744] (AR v2)
Copy OK

Track 15 Filename D:\_Post\Who\CD2\15 - Smash The Mirror.wav Peak level 97.7 %
Extraction speed 2.6 X
Track quality 100.0 %
Test CRC 7058C1FF
Copy CRC 7058C1FF
Accurately ripped (confidence 86) [095C7142] (AR v2)
Copy OK

Track 16 Filename D:\_Post\Who\CD2\16 - Miracle Cure.wav Peak level 95.9 %
Extraction speed 0.3 X
Track quality 99.1 %
Test CRC 3FEAC65B
Copy CRC 3FEAC65B
Accurately ripped (confidence 87) [328A48D6] (AR v2)
Copy OK

Track 17 Filename D:\_Post\Who\CD2\17 - Sally Simpson.wav Peak level 98.1 %
Extraction speed 2.4 X
Track quality 99.9 %
Test CRC EB095E02
Copy CRC EB095E02
Accurately ripped (confidence 87) [7084267F] (AR v2)
Copy OK

Track 18 Filename D:\_Post\Who\CD2\18 - I'm Free.wav Peak level 98.6 %
Extraction speed 3.1 X
Track quality 100.0 %
Test CRC B975C14E
Copy CRC B975C14E
Accurately ripped (confidence 87) [CAEFBC7B] (AR v2)
Copy OK

Track 19 Filename D:\_Post\Who\CD2\19 - Tommy's Holiday Camp.wav Peak level 98.1 %
Extraction speed 2.5 X
Track quality 100.0 %
Test CRC 408C630A
Copy CRC 408C630A
Accurately ripped (confidence 87) [EFFF444F] (AR v2)
Copy OK

Track 20 Filename D:\_Post\Who\CD2\20 - We're Not Gonna Take It.wav Peak level 98.6 %
Extraction speed 3.6 X
Track quality 100.0 %
Test CRC 69CDA929
Copy CRC 69CDA929
Accurately ripped (confidence 87) [C1A6122B] (AR v2)
Copy OK

All tracks accurately ripped

No errors occurred

End of status report

- CUETools DB Plugin V2.1.6

[CTDB TOCID: CGgZ3u5J1XJMeaG.pM0aoS70JFA-] found
Submit result: CGgZ3u5J1XJMeaG.pM0aoS70JFA- has been confirmed
Track | CTDB Status
1 | (68/69) Accurately ripped
2 | (67/69) Accurately ripped
3 | (68/69) Accurately ripped
4 | (67/69) Accurately ripped
5 | (68/69) Accurately ripped
6 | (68/69) Accurately ripped
7 | (67/69) Accurately ripped
8 | (68/69) Accurately ripped
9 | (68/69) Accurately ripped
10 | (67/69) Accurately ripped
11 | (68/69) Accurately ripped
12 | (67/69) Accurately ripped
13 | (67/69) Accurately ripped
14 | (68/69) Accurately ripped
15 | (68/69) Accurately ripped
16 | (68/69) Accurately ripped
17 | (67/69) Accurately ripped
18 | (67/69) Accurately ripped
19 | (67/69) Accurately ripped
20 | (68/69) Accurately ripped

==== Log checksum 02F2DD0F3F59F002B8B54EA80ABC397A67B8E3B4848F836DCA2C8FC9BAFE11AA ====

The Who - Live At Hull 1970 (2012) [2CD] {Geffen Records}

The Who - Live At Hull 1970 (2012) [2CD] {Geffen Records}


All thanks goes to the original releaser!
DOWNLOAD LINKS
Buy Premium From My Links To Get Resumable Support & Max Speed & To Support Me

Rapidgator.net:
http://rapidgator.net/file/6185b5009e12e176448c328e19b600de/ew5cd.wholiveathull1970ARTWORK.rar.html
http://rapidgator.net/file/8cf334b751dd14ffff69e7a4bab914bf/ew5cd.wholiveathull1970CD1.part1.rar.html
http://rapidgator.net/file/c24740c7b99135b9a4bdd32da495fac3/ew5cd.wholiveathull1970CD1.part2.rar.html
http://rapidgator.net/file/c983ce535c2cfc726d0330374a96fe26/ew5cd.wholiveathull1970CD1MP.rar.html
http://rapidgator.net/file/99b9d23f617c3b93f8866337e8808884/ew5cd.wholiveathull1970CD2.part1.rar.html
http://rapidgator.net/file/4e5b3a46d309dba11cf126eba57e8283/ew5cd.wholiveathull1970CD2.part2.rar.html
http://rapidgator.net/file/04683e30234f1a408f98b311c64522af/ew5cd.wholiveathull1970CD2MP.rar.html

Uploaded.net:
http://uploaded.net/file/32q3sxjf/ew5cd.wholiveathull1970ARTWORK.rar
http://uploaded.net/file/paqo68qu/ew5cd.wholiveathull1970CD1.part1.rar
http://uploaded.net/file/xiu7uo8c/ew5cd.wholiveathull1970CD1.part2.rar
http://uploaded.net/file/nmi2rw3j/ew5cd.wholiveathull1970CD1MP.rar
http://uploaded.net/file/eolj9zua/ew5cd.wholiveathull1970CD2.part1.rar
http://uploaded.net/file/c9r9ase4/ew5cd.wholiveathull1970CD2.part2.rar
http://uploaded.net/file/rcw3fo5f/ew5cd.wholiveathull1970CD2MP.rar

Uploadable.ch:
http://www.uploadable.ch/file/Rqc5Zqp7nckN/ew5cd.wholiveathull1970ARTWORK.rar
http://www.uploadable.ch/file/9vFztANb2WBy/ew5cd.wholiveathull1970CD1.part1.rar
http://www.uploadable.ch/file/WyXnZfjrD9Gr/ew5cd.wholiveathull1970CD1.part2.rar
http://www.uploadable.ch/file/NfZvtkRH7mq8/ew5cd.wholiveathull1970CD1MP.rar
http://www.uploadable.ch/file/BJ9C2Krgb6cY/ew5cd.wholiveathull1970CD2.part1.rar
http://www.uploadable.ch/file/Jg2uBJ9Qjhev/ew5cd.wholiveathull1970CD2.part2.rar
http://www.uploadable.ch/file/cZHTNWTqvpPH/ew5cd.wholiveathull1970CD2MP.rar

Links are Interchangeable - No Password - Single Extraction
Direct Download

Tags: Geffen, Records

The Who - Live At Hull 1970 (2012) [2CD] {Geffen Records} Download via Hotfile Rapidshare Fileserve Megaupload & FileSonic, The Who - Live At Hull 1970 (2012) [2CD] {Geffen Records} free torrent downloads included crack, serial, keygen.The Who - Live At Hull 1970 (2012) [2CD] {Geffen Records} Fast Download via Rapidshare Hotfile Fileserve Filesonic Megaupload, The Who - Live At Hull 1970 (2012) [2CD] {Geffen Records} Torrents and Emule Download or anything related.
Leave a Comment
Your Name:
E-Mail:
Add Comments:

Enter Code: