Merrill Moore - Boogie My Blues Away (2CD, 1990) Re-uploaD

Download Now

Merrill Moore - Boogie My Blues Away (2CD, 1990) Re-uploaD

Merrill Moore - Boogie My Blues Away (2CD, 1990)
EAC | FLAC(tracks)+CUEs+LOGs - 688 MB | Full Scans | MP3 CBR 320 Kbps - 251 MB
Piano Rock & Roll / Boogie Woogie / Western Swing | TT - 112:11 mins | Bear Family Records # BCD 15505 BH

The records defy categorization. Rock and Roll die hards proclaim Moore "The Father of Rockabilly piano" with legends such as The Killer himself, Jerry Lee Lewis, naming Moore as an early idol. Fans of country music admire Moore's crisp, clear vocal delivery, rivaling those 50s superstars from Nashville like Webb Pierce and Faron Young (although Moore insists that his band was not country). They compare the rhythm of his small band to those of Western swing king Bob Wills, who in the early 50s recorded some of 'his' finest work for MGM. But despite these accolades from his peers and fans all overthe world, Merrill Everett Moore remains an unknown; unacknowledged for his contributions to the West Coast music scene and ignored by the Nashville establishment.
"Pianist Merrill Moore's unique style fused Western swing, boogie-woogie, and early R&B in a melting pot that many critics felt was a distinct influence on rockabilly, especially Jerry Lee Lewis.

Merrill Moore - Boogie My Blues Away (2CD, 1990) Re-uploaD



Born in Algona, IA, in 1923, Moore began playing the piano at age seven and by 12 was performing on a Des Moines radio station. After high school, he played in a band on the Midwestern ballroom circuit, taking a break to serve in the Navy during World War II. Afterwards, he married his high-school sweetheart and moved to San Diego, where he started playing the club circuit. He got a regular gig with local club kingpin Jimmy Kennedy and put together the Saddle, Rock & Rhythm Boys as his backing band in 1950. Kennedy helped get Moore a record deal with Capitol in 1952, and that year he released his first single, "Big Bug Boogie." 1953's "House of Blue Lights" became a national hit, but Kennedy refused to allow the band to tour or promote the record: He'd signed them to a seven-year deal to play six nights a week and had only gotten them the record contract to increase their local drawing power. Moore continued to record occasional boogies and novelty tunes for Capitol, issuing an extremely rare self-titled EP in 1955. That same year, he walked out on his contract with Kennedy and moved to Los Angeles.

Moore performed regularly on Cliffie Stone's music program Hometown Jamboree and also worked as a session pianist, appearing on records by the likes of Tommy Sands ("Teenage Crush"), Johnny Cash, Faron Young, Hank Thompson, Sonny James, and Kay Starr, among others. He recorded only one more session for Capitol, a selection of instrumentals that wasn't released until 1990 by Bear Family. Moore returned to San Diego in 1962, taking up residency in a hotel lounge. He worked clubs and similar venues for the next couple of decades, sometimes venturing into Nevada and Arizona. A car accident in 1986 put him on hiatus for a few years, but Moore spent most of the '90s playing regularly at Mr. A's in San Diego, leaving in 1998. He lost a battle with cancer on June 14, 2000.

-- allmusic.com biography by Steve Huey

"


Disc One:

01. Rock-Rock Ola
02. House Of Blue Lights
03. Big Bug Boogie
04. Saddle Boogie
05. Corrine, Corrina
06. Red Light
07. Bartender's Blues
08. Hard Top Race
09. Nola Boogie
10. Bell Bottom Boogie
11. Doggie House Boogie
12. Sweet Jenny Lee
13. Fly Right Boogie
14. (It's A) One Way Door
15. Snatchin' And Grabbin
16. I Think I Love You Too
17. Ten, Ten A.M.
18. Nola Boogie (EP Version)
19. Yes Indeed
20. Five Foot Two, Eyes Of Blue
21. Cow Cow Boogie
22. Boogie My Blues Away
23. Yes Indeed (alternate)

Exact Audio Copy V1.0 beta 2 from 29. April 2011

EAC extraction logfile from 21. October 2011, 10:32

Merrill Moore / Boogie My Blues Away, Disc 1

Used drive : PLEXTOR CD-R PX-W4824A Adapter: 0 ID: 1

Read mode : Secure
Utilize accurate stream : Yes
Defeat audio cache : Yes
Make use of C2 pointers : No

Read offset correction

: 98
Overread into Lead-In and Lead-Out : Yes
Fill up missing offset samples with silence : Yes
Delete leading and trailing silent blocks : No
Null samples used in CRC calculations : Yes
Used interface
: Installed external ASPI interface
Gap handling
: Appended to previous track

Used output format : User Defined Encoder
Selected bitrate : 256 kBit/s
Quality : High
Add ID3 tag : No
Command line compressor : C:\Program Files\Exact Audio Copy\FLAC\FLAC.EXE
Additional command line options : -8 -V -T "ARTIST=%artist%" -T "TITLE=%title%" -T "ALBUM=%albumtitle%" -T "DATE=%year%" -T "TRACKNUMBER=%tracknr%" -T "TOTALTRACKS=%numtracks%" -T "GENRE=%genre%" -T "ALBUMARTIST=%albumartist%" -T "ALBUM ARTIST=%albumartist%

TOC of the extracted CD Track | Start | Length | Start sector | End sector
--1 | 0:00.00 | 2:15.40 | 0 | 10164 2 | 2:15.40 | 2:21.07 | 10165 | 20746 3 | 4:36.47 | 2:50.25 | 20747 | 33521 4 | 7:26.72 | 2:30.68 | 33522 | 44839 5 | 9:57.65 | 2:18.25 | 44840 | 55214 6 | 12:16.15 | 2:32.72 | 55215 | 66686 7 | 14:49.12 | 2:35.28 | 66687 | 78339 8 | 17:24.40 | 2:08.57 | 78340 | 87996 9 | 19:33.22 | 2:05.00 | 87997 | 97371
10 | 21:38.22 | 2:19.55 | 97372 | 107851
11 | 23:58.02 | 2:27.38 | 107852 | 118914
12 | 26:25.40 | 2:09.47 | 118915 | 128636
13 | 28:35.12 | 2:24.65 | 128637 | 139501
14 | 31:00.02 | 2:26.45 | 139502 | 150496
15 | 33:26.47 | 2:30.15 | 150497 | 161761
16 | 35:56.62 | 2:37.55 | 161762 | 173591
17 | 38:34.42 | 2:06.48 | 173592 | 183089
18 | 40:41.15 | 2:06.05 | 183090 | 192544
19 | 42:47.20 | 2:18.12 | 192545 | 202906
20 | 45:05.32 | 2:17.10 | 202907 | 213191
21 | 47:22.42 | 2:21.55 | 213192 | 223821
22 | 49:44.22 | 2:09.70 | 223822 | 233566
23 | 51:54.17 | 2:15.08 | 233567 | 243699

Track 1 Filename I:\Merrill Moore - Boogie My Blues Away (1990) [FLAC] {2 CD set Bear Family BCD 15505}\Disc 1 of 2\01 - Rock-Rock Ola.wav Pre-gap length 0:00:02.00 Peak level 95.0 %
Extraction speed 7.9 X
Track quality 100.0 %
Test CRC C0DA1388
Copy CRC C0DA1388
Accurately ripped (confidence 1) [5A5F18BA] (AR v1)
Copy OK

Track 2 Filename I:\Merrill Moore - Boogie My Blues Away (1990) [FLAC] {2 CD set Bear Family BCD 15505}\Disc 1 of 2\02 - House Of Blue Lights.wav Pre-gap length 0:00:02.38 Peak level 100.0 %
Extraction speed 6.7 X
Track quality 99.9 %
Test CRC 8FDAA1D8
Copy CRC 8FDAA1D8
Accurately ripped (confidence 1) B35C150 (AR v1)
Copy OK

Track 3 Filename I:\Merrill Moore - Boogie My Blues Away (1990) [FLAC] {2 CD set Bear Family BCD 15505}\Disc 1 of 2\03 - Big Bug Boogie.wav Pre-gap length 0:00:02.37 Peak level 98.6 %
Extraction speed 7.4 X
Track quality 99.9 %
Test CRC 2AE28603
Copy CRC 2AE28603
Accurately ripped (confidence 1) [7C8C53DB] (AR v1)
Copy OK

Track 4 Filename I:\Merrill Moore - Boogie My Blues Away (1990) [FLAC] {2 CD set Bear Family BCD 15505}\Disc 1 of 2\04 - Saddle Boogie.wav Pre-gap length 0:00:02.37 Peak level 73.4 %
Extraction speed 9.4 X
Track quality 100.0 %
Test CRC 17F6F1B8
Copy CRC 17F6F1B8
Accurately ripped (confidence 1) [6182E03E] (AR v1)
Copy OK

Track 5 Filename I:\Merrill Moore - Boogie My Blues Away (1990) [FLAC] {2 CD set Bear Family BCD 15505}\Disc 1 of 2\05 - Corrine, Corrina.wav Pre-gap length 0:00:02.38 Peak level 95.1 %
Extraction speed 9.8 X
Track quality 100.0 %
Test CRC BF1D3642
Copy CRC BF1D3642
Accurately ripped (confidence 1) [7EAFC9B5] (AR v1)
Copy OK

Track 6 Filename I:\Merrill Moore - Boogie My Blues Away (1990) [FLAC] {2 CD set Bear Family BCD 15505}\Disc 1 of 2\06 - Red Light.wav Pre-gap length 0:00:02.63 Peak level 96.7 %
Extraction speed 10.3 X
Track quality 100.0 %
Test CRC 19051653
Copy CRC 19051653
Accurately ripped (confidence 1) [707715F1] (AR v1)
Copy OK

Track 7 Filename I:\Merrill Moore - Boogie My Blues Away (1990) [FLAC] {2 CD set Bear Family BCD 15505}\Disc 1 of 2\07 - Bartender's Blues.wav Pre-gap length 0:00:02.62 Peak level 97.2 %
Extraction speed 8.4 X
Track quality 99.9 %
Test CRC 623EB33B
Copy CRC 623EB33B
Accurately ripped (confidence 1) [5BC435A7] (AR v1)
Copy OK

Track 8 Filename I:\Merrill Moore - Boogie My Blues Away (1990) [FLAC] {2 CD set Bear Family BCD 15505}\Disc 1 of 2\08 - Hard Top Race.wav Pre-gap length 0:00:02.38 Peak level 96.2 %
Extraction speed 11.0 X
Track quality 100.0 %
Test CRC 0024EC13
Copy CRC 0024EC13
Accurately ripped (confidence 1) [6E690BFC] (AR v1)
Copy OK

Track 9 Filename I:\Merrill Moore - Boogie My Blues Away (1990) [FLAC] {2 CD set Bear Family BCD 15505}\Disc 1 of 2\09 - Nola Boogie.wav Pre-gap length 0:00:02.37 Peak level 100.0 %
Extraction speed 11.2 X
Track quality 100.0 %
Test CRC 1A6FAE98
Copy CRC 1A6FAE98
Accurately ripped (confidence 1) [D814F033] (AR v1)
Copy OK

Track 10 Filename I:\Merrill Moore - Boogie My Blues Away (1990) [FLAC] {2 CD set Bear Family BCD 15505}\Disc 1 of 2\10 - Bell Bottom Boogie.wav Pre-gap length 0:00:02.37 Peak level 98.1 %
Extraction speed 11.7 X
Track quality 100.0 %
Test CRC EABA586A
Copy CRC EABA586A
Accurately ripped (confidence 1) [E1198D40] (AR v1)
Copy OK

Track 11 Filename I:\Merrill Moore - Boogie My Blues Away (1990) [FLAC] {2 CD set Bear Family BCD 15505}\Disc 1 of 2\11 - Doggie House Boogie.wav Pre-gap length 0:00:02.37 Peak level 100.0 %
Extraction speed 12.1 X
Track quality 100.0 %
Test CRC EE011BE1
Copy CRC EE011BE1
Accurately ripped (confidence 1) [9017F58F] (AR v1)
Copy OK

Track 12 Filename I:\Merrill Moore - Boogie My Blues Away (1990) [FLAC] {2 CD set Bear Family BCD 15505}\Disc 1 of 2\12 - Sweet Jenny Lee.wav Pre-gap length 0:00:02.38 Peak level 98.5 %
Extraction speed 12.3 X
Track quality 100.0 %
Test CRC BE1ED7A6
Copy CRC BE1ED7A6
Accurately ripped (confidence 1) [CB1406DB] (AR v1)
Copy OK

Track 13 Filename I:\Merrill Moore - Boogie My Blues Away (1990) [FLAC] {2 CD set Bear Family BCD 15505}\Disc 1 of 2\13 - Fly Right Boogie.wav Pre-gap length 0:00:02.37 Peak level 78.0 %
Extraction speed 12.6 X
Track quality 100.0 %
Test CRC 9FC1CCB7
Copy CRC 9FC1CCB7
Accurately ripped (confidence 1) [1B7B50CF] (AR v1)
Copy OK

Track 14 Filename I:\Merrill Moore - Boogie My Blues Away (1990) [FLAC] {2 CD set Bear Family BCD 15505}\Disc 1 of 2\14 - (It's A) One Way Door.wav Pre-gap length 0:00:02.37 Peak level 78.9 %
Extraction speed 12.9 X
Track quality 100.0 %
Test CRC E46249A8
Copy CRC E46249A8
Accurately ripped (confidence 1) B95FBF4 (AR v1)
Copy OK

Track 15 Filename I:\Merrill Moore - Boogie My Blues Away (1990) [FLAC] {2 CD set Bear Family BCD 15505}\Disc 1 of 2\15 - Snatchin' And Grabbin.wav Pre-gap length 0:00:02.37 Peak level 81.5 %
Extraction speed 13.2 X
Track quality 100.0 %
Test CRC 63F51986
Copy CRC 63F51986
Accurately ripped (confidence 1) [A5B7482A] (AR v1)
Copy OK

Track 16 Filename I:\Merrill Moore - Boogie My Blues Away (1990) [FLAC] {2 CD set Bear Family BCD 15505}\Disc 1 of 2\16 - I Think I Love You Too.wav Pre-gap length 0:00:02.37 Peak level 78.4 %
Extraction speed 13.4 X
Track quality 100.0 %
Test CRC 269CC6E1
Copy CRC 269CC6E1
Accurately ripped (confidence 1) [87543196] (AR v1)
Copy OK

Track 17 Filename I:\Merrill Moore - Boogie My Blues Away (1990) [FLAC] {2 CD set Bear Family BCD 15505}\Disc 1 of 2\17 - Ten, Ten A.M..wav Pre-gap length 0:00:02.37 Peak level 95.0 %
Extraction speed 13.4 X
Track quality 100.0 %
Test CRC 69AC43B5
Copy CRC 69AC43B5
Cannot be verified as accurate (confidence 1) [3BACB036], AccurateRip returned [D0DDA7B1] (AR v2)
Copy OK

Track 18 Filename I:\Merrill Moore - Boogie My Blues Away (1990) [FLAC] {2 CD set Bear Family BCD 15505}\Disc 1 of 2\18 - Nola Boogie (EP Version).wav Pre-gap length 0:00:02.38 Peak level 57.3 %
Extraction speed 13.7 X
Track quality 100.0 %
Test CRC 0BB94C3B
Copy CRC 0BB94C3B
Accurately ripped (confidence 1) [9E1E8FF7] (AR v1)
Copy OK

Track 19 Filename I:\Merrill Moore - Boogie My Blues Away (1990) [FLAC] {2 CD set Bear Family BCD 15505}\Disc 1 of 2\19 - Yes Indeed.wav Pre-gap length 0:00:02.38 Peak level 79.4 %
Extraction speed 14.2 X
Track quality 100.0 %
Test CRC 3F65CC5F
Copy CRC 3F65CC5F
Accurately ripped (confidence 1) [7883422E] (AR v1)
Copy OK

Track 20 Filename I:\Merrill Moore - Boogie My Blues Away (1990) [FLAC] {2 CD set Bear Family BCD 15505}\Disc 1 of 2\20 - Five Foot Two, Eyes Of Blue.wav Pre-gap length 0:00:02.37 Peak level 100.0 %
Extraction speed 10.0 X
Track quality 99.9 %
Test CRC 2FF529F4
Copy CRC 2FF529F4
Accurately ripped (confidence 1) [A7D2CE8B] (AR v1)
Copy OK

Track 21 Filename I:\Merrill Moore - Boogie My Blues Away (1990) [FLAC] {2 CD set Bear Family BCD 15505}\Disc 1 of 2\21 - Cow Cow Boogie.wav Pre-gap length 0:00:02.37 Peak level 67.5 %
Extraction speed 10.5 X
Track quality 99.9 %
Test CRC EFE6DD8C
Copy CRC EFE6DD8C
Accurately ripped (confidence 1) [83FF7D47] (AR v1)
Copy OK

Track 22 Filename I:\Merrill Moore - Boogie My Blues Away (1990) [FLAC] {2 CD set Bear Family BCD 15505}\Disc 1 of 2\22 - Boogie My Blues Away.wav Pre-gap length 0:00:02.37 Peak level 60.4 %
Extraction speed 14.6 X
Track quality 100.0 %
Test CRC EC634E54
Copy CRC EC634E54
Accurately ripped (confidence 1) [5235F10E] (AR v1)
Copy OK

Track 23 Filename I:\Merrill Moore - Boogie My Blues Away (1990) [FLAC] {2 CD set Bear Family BCD 15505}\Disc 1 of 2\23 - Yes Indeed (alternate).wav Pre-gap length 0:00:02.37 Peak level 74.5 %
Extraction speed 12.2 X
Track quality 99.9 %
Test CRC C34D877E
Copy CRC C34D877E
Accurately ripped (confidence 1) [246E28D4] (AR v1)
Copy OK

22 track(s) accurately ripped
1 track(s) could not be verified as accurate

Some tracks could not be verified as accurate

No errors occurred

End of status report

==== Log checksum A1B017F97D19D6201CC5690E1AF7EAF41CCED2A3E61F0BB07C7DCF648C0A25FB ====

Disc Two:

01. Rock Island Line
02. King Porter Stomp
03. Cooing The Wrong Pigeon
04. She's Gone
05. Down The Road A Piece
06. Gotta Gimme What'cha Got
07. Nursery Rhyme Blues
08. Buttermilk Baby
09. Barrel House Bessie
10. Tuck Me To Sleep In My Old Tucky Home
11. Music, Music, Music
12. Sun Walley Walk
13. Lazy River
14. Back Home Indiana
15. South
16. Shanty In Old Shanty Town
17. Sweet Georgia Brown
18. Nobody's Sweetheart
19. Jumpin At The Woodside
20. Somebosy Stole My Gal
21. Moore Blues
22. Sentimental Journey

Exact Audio Copy V1.0 beta 2 from 29. April 2011

EAC extraction logfile from 21. October 2011, 11:18

Merrill Moore / Boogie My Blues Away, Disc 2

Used drive : PLEXTOR CD-R PX-W4824A Adapter: 0 ID: 1

Read mode : Secure
Utilize accurate stream : Yes
Defeat audio cache : Yes
Make use of C2 pointers : No

Read offset correction

: 98
Overread into Lead-In and Lead-Out : Yes
Fill up missing offset samples with silence : Yes
Delete leading and trailing silent blocks : No
Null samples used in CRC calculations : Yes
Used interface
: Installed external ASPI interface
Gap handling
: Appended to previous track

Used output format : User Defined Encoder
Selected bitrate : 256 kBit/s
Quality : High
Add ID3 tag : No
Command line compressor : C:\Program Files\Exact Audio Copy\FLAC\FLAC.EXE
Additional command line options : -8 -V -T "ARTIST=%artist%" -T "TITLE=%title%" -T "ALBUM=%albumtitle%" -T "DATE=%year%" -T "TRACKNUMBER=%tracknr%" -T "TOTALTRACKS=%numtracks%" -T "GENRE=%genre%" -T "ALBUMARTIST=%albumartist%" -T "ALBUM ARTIST=%albumartist%

TOC of the extracted CD Track | Start | Length | Start sector | End sector
--1 | 0:00.00 | 2:14.25 | 0 | 10074 2 | 2:14.25 | 2:11.52 | 10075 | 19951 3 | 4:26.02 | 2:26.45 | 19952 | 30946 4 | 6:52.47 | 2:35.08 | 30947 | 42579 5 | 9:27.55 | 2:25.47 | 42580 | 53501 6 | 11:53.27 | 2:14.55 | 53502 | 63606 7 | 14:08.07 | 2:08.25 | 63607 | 73231 8 | 16:16.32 | 2:18.30 | 73232 | 83611 9 | 18:34.62 | 2:13.38 | 83612 | 93624
10 | 20:48.25 | 2:09.02 | 93625 | 103301
11 | 22:57.27 | 2:04.20 | 103302 | 112621
12 | 25:01.47 | 2:59.70 | 112622 | 126116
13 | 28:01.42 | 2:36.55 | 126117 | 137871
14 | 30:38.22 | 3:13.53 | 137872 | 152399
15 | 33:52.00 | 2:05.30 | 152400 | 161804
16 | 35:57.30 | 2:41.30 | 161805 | 173909
17 | 38:38.60 | 2:44.50 | 173910 | 186259
18 | 41:23.35 | 2:53.17 | 186260 | 199251
19 | 44:16.52 | 2:43.63 | 199252 | 211539
20 | 47:00.40 | 2:53.42 | 211540 | 224556
21 | 49:54.07 | 4:11.10 | 224557 | 243391
22 | 54:05.17 | 3:56.03 | 243392 | 261094

Track 1 Filename I:\Merrill Moore - Boogie My Blues Away (1990) [FLAC] {2 CD set Bear Family BCD 15505}\Disc 2 of 2\01 - Rock Island Line.wav Pre-gap length 0:00:02.00 Peak level 100.0 %
Extraction speed 8.0 X
Track quality 100.0 %
Test CRC B4E02B8C
Copy CRC B4E02B8C
Accurately ripped (confidence 1) [DCB22A3B] (AR v1)
Copy OK

Track 2 Filename I:\Merrill Moore - Boogie My Blues Away (1990) [FLAC] {2 CD set Bear Family BCD 15505}\Disc 2 of 2\02 - King Porter Stomp.wav Pre-gap length 0:00:02.38 Peak level 100.0 %
Extraction speed 8.4 X
Track quality 100.0 %
Test CRC FF02E4BC
Copy CRC FF02E4BC
Accurately ripped (confidence 1) [3BEB0820] (AR v1)
Copy OK

Track 3 Filename I:\Merrill Moore - Boogie My Blues Away (1990) [FLAC] {2 CD set Bear Family BCD 15505}\Disc 2 of 2\03 - Cooing The Wrong Pigeon.wav Pre-gap length 0:00:02.37 Peak level 93.1 %
Extraction speed 8.9 X
Track quality 100.0 %
Test CRC BB6BA133
Copy CRC BB6BA133
Accurately ripped (confidence 1) [87C15A41] (AR v1)
Copy OK

Track 4 Filename I:\Merrill Moore - Boogie My Blues Away (1990) [FLAC] {2 CD set Bear Family BCD 15505}\Disc 2 of 2\04 - She's Gone.wav Pre-gap length 0:00:02.37 Peak level 89.0 %
Extraction speed 9.5 X
Track quality 100.0 %
Test CRC 0CF8E543
Copy CRC 0CF8E543
Accurately ripped (confidence 1) [EF30127F] (AR v1)
Copy OK

Track 5 Filename I:\Merrill Moore - Boogie My Blues Away (1990) [FLAC] {2 CD set Bear Family BCD 15505}\Disc 2 of 2\05 - Down The Road A Piece.wav Pre-gap length 0:00:02.38 Peak level 87.9 %
Extraction speed 9.9 X
Track quality 100.0 %
Test CRC A0D05458
Copy CRC A0D05458
Accurately ripped (confidence 1) [7FD66464] (AR v1)
Copy OK

Track 6 Filename I:\Merrill Moore - Boogie My Blues Away (1990) [FLAC] {2 CD set Bear Family BCD 15505}\Disc 2 of 2\06 - Gotta Gimme What'cha Got.wav Pre-gap length 0:00:02.37 Peak level 98.3 %
Extraction speed 10.2 X
Track quality 100.0 %
Test CRC B991D6E6
Copy CRC B991D6E6
Accurately ripped (confidence 1) 9F763BE (AR v1)
Copy OK

Track 7 Filename I:\Merrill Moore - Boogie My Blues Away (1990) [FLAC] {2 CD set Bear Family BCD 15505}\Disc 2 of 2\07 - Nursery Rhyme Blues.wav Pre-gap length 0:00:02.37 Peak level 97.6 %
Extraction speed 10.5 X
Track quality 100.0 %
Test CRC E5D2F526
Copy CRC E5D2F526
Accurately ripped (confidence 1) [A65449CD] (AR v1)
Copy OK

Track 8 Filename I:\Merrill Moore - Boogie My Blues Away (1990) [FLAC] {2 CD set Bear Family BCD 15505}\Disc 2 of 2\08 - Buttermilk Baby.wav Pre-gap length 0:00:02.37 Peak level 94.7 %
Extraction speed 10.9 X
Track quality 100.0 %
Test CRC B08BF6DB
Copy CRC B08BF6DB
Accurately ripped (confidence 1) [FE37C02C] (AR v1)
Copy OK

Track 9 Filename I:\Merrill Moore - Boogie My Blues Away (1990) [FLAC] {2 CD set Bear Family BCD 15505}\Disc 2 of 2\09 - Barrel House Bessie.wav Pre-gap length 0:00:02.37 Peak level 95.6 %
Extraction speed 11.2 X
Track quality 100.0 %
Test CRC 5801B398
Copy CRC 5801B398
Accurately ripped (confidence 1) [D1E86F72] (AR v1)
Copy OK

Track 10 Filename I:\Merrill Moore - Boogie My Blues Away (1990) [FLAC] {2 CD set Bear Family BCD 15505}\Disc 2 of 2\10 - Tuck Me To Sleep In My Old Tucky Home.wav Pre-gap length 0:00:02.38 Peak level 100.0 %
Extraction speed 11.6 X
Track quality 100.0 %
Test CRC A7274BE1
Copy CRC A7274BE1
Accurately ripped (confidence 1) [0C32CAC8] (AR v1)
Copy OK

Track 11 Filename I:\Merrill Moore - Boogie My Blues Away (1990) [FLAC] {2 CD set Bear Family BCD 15505}\Disc 2 of 2\11 - Music, Music, Music.wav Pre-gap length 0:00:02.37 Peak level 95.5 %
Extraction speed 11.7 X
Track quality 100.0 %
Test CRC E056C51B
Copy CRC E056C51B
Accurately ripped (confidence 1) [20D013C8] (AR v1)
Copy OK

Track 12 Filename I:\Merrill Moore - Boogie My Blues Away (1990) [FLAC] {2 CD set Bear Family BCD 15505}\Disc 2 of 2\12 - Sun Walley Walk.wav Pre-gap length 0:00:02.37 Peak level 94.2 %
Extraction speed 9.6 X
Track quality 99.9 %
Test CRC 7499A114
Copy CRC 7499A114
Accurately ripped (confidence 1) [5D428C99] (AR v1)
Copy OK

Track 13 Filename I:\Merrill Moore - Boogie My Blues Away (1990) [FLAC] {2 CD set Bear Family BCD 15505}\Disc 2 of 2\13 - Lazy River.wav Pre-gap length 0:00:02.37 Peak level 95.9 %
Extraction speed 12.5 X
Track quality 100.0 %
Test CRC 3F09A00B
Copy CRC 3F09A00B
Accurately ripped (confidence 1) A384B49 (AR v1)
Copy OK

Track 14 Filename I:\Merrill Moore - Boogie My Blues Away (1990) [FLAC] {2 CD set Bear Family BCD 15505}\Disc 2 of 2\14 - Back Home Indiana.wav Pre-gap length 0:00:02.37 Peak level 94.8 %
Extraction speed 13.4 X
Track quality 100.0 %
Test CRC B9BDF081
Copy CRC B9BDF081
Accurately ripped (confidence 1) [8BFDA676] (AR v1)
Copy OK

Track 15 Filename I:\Merrill Moore - Boogie My Blues Away (1990) [FLAC] {2 CD set Bear Family BCD 15505}\Disc 2 of 2\15 - South.wav Pre-gap length 0:00:02.38 Peak level 95.1 %
Extraction speed 13.1 X
Track quality 100.0 %
Test CRC BC13BCE8
Copy CRC BC13BCE8
Accurately ripped (confidence 1) [468DCA0B] (AR v1)
Copy OK

Track 16 Filename I:\Merrill Moore - Boogie My Blues Away (1990) [FLAC] {2 CD set Bear Family BCD 15505}\Disc 2 of 2\16 - Shanty In Old Shanty Town.wav Pre-gap length 0:00:02.38 Peak level 95.9 %
Extraction speed 13.8 X
Track quality 100.0 %
Test CRC 0D002EBF
Copy CRC 0D002EBF
Accurately ripped (confidence 1) [08BF3D95] (AR v1)
Copy OK

Track 17 Filename I:\Merrill Moore - Boogie My Blues Away (1990) [FLAC] {2 CD set Bear Family BCD 15505}\Disc 2 of 2\17 - Sweet Georgia Brown.wav Pre-gap length 0:00:02.38 Peak level 95.6 %
Extraction speed 10.4 X
Track quality 99.9 %
Test CRC BDDAB7C2
Copy CRC BDDAB7C2
Accurately ripped (confidence 1) [D6B10ED6] (AR v1)
Copy OK

Track 18 Filename I:\Merrill Moore - Boogie My Blues Away (1990) [FLAC] {2 CD set Bear Family BCD 15505}\Disc 2 of 2\18 - Nobody's Sweetheart.wav Pre-gap length 0:00:02.38 Peak level 95.4 %
Extraction speed 14.4 X
Track quality 100.0 %
Test CRC 645F08DE
Copy CRC 645F08DE
Accurately ripped (confidence 1) [F5EB8DB3] (AR v1)
Copy OK

Track 19 Filename I:\Merrill Moore - Boogie My Blues Away (1990) [FLAC] {2 CD set Bear Family BCD 15505}\Disc 2 of 2\19 - Jumpin At The Woodside.wav Pre-gap length 0:00:02.37 Suspicious position 0:00:57 Peak level 96.8 %
Extraction speed 5.9 X
Track quality 99.5 %
Test CRC 617B35C3
Copy CRC 77F3ADB6
Cannot be verified as accurate (confidence 1) [6BE6C0DF], AccurateRip returned 5A496B6 (AR v2)
Copy finished

Track 20 Filename I:\Merrill Moore - Boogie My Blues Away (1990) [FLAC] {2 CD set Bear Family BCD 15505}\Disc 2 of 2\20 - Somebosy Stole My Gal.wav Pre-gap length 0:00:02.38 Peak level 94.6 %
Extraction speed 15.0 X
Track quality 100.0 %
Test CRC F30931F6
Copy CRC F30931F6
Accurately ripped (confidence 1) [28FA1F29] (AR v1)
Copy OK

Track 21 Filename I:\Merrill Moore - Boogie My Blues Away (1990) [FLAC] {2 CD set Bear Family BCD 15505}\Disc 2 of 2\21 - Moore Blues.wav Pre-gap length 0:00:02.37 Peak level 97.1 %
Extraction speed 15.9 X
Track quality 100.0 %
Test CRC D5783C24
Copy CRC D5783C24
Accurately ripped (confidence 1) A45150D (AR v1)
Copy OK

Track 22 Filename I:\Merrill Moore - Boogie My Blues Away (1990) [FLAC] {2 CD set Bear Family BCD 15505}\Disc 2 of 2\22 - Sentimental Journey.wav Pre-gap length 0:00:02.37 Peak level 96.0 %
Extraction speed 15.5 X
Track quality 99.9 %
Test CRC EF890425
Copy CRC EF890425
Cannot be verified as accurate (confidence 1) [74CF46AD], AccurateRip returned [603FF96D] (AR v2)
Copy OK

20 track(s) accurately ripped
2 track(s) could not be verified as accurate

Some tracks could not be verified as accurate

There were errors

End of status report

==== Log checksum D3CA96F5994BFA91CBECC11512F981E11648A6EDD7A45DAE35AA7CCA95567550 ====

Produced by Ken Nelson, Buck Stapleton.
Re-issue Produced by Richard Weize. Mastered by Rebecca Everett.
DOWNLOAD LINKS
Buy Premium From My Links To Get Resumable Support & Max Speed & To Support Me


Links are Interchangeable - No Password - Single Extraction
Direct Download

Tags: Merrill, Boogie, uploaD

Merrill Moore - Boogie My Blues Away (2CD, 1990) Re-uploaD Download via Hotfile Rapidshare Fileserve Megaupload & FileSonic, Merrill Moore - Boogie My Blues Away (2CD, 1990) Re-uploaD free torrent downloads included crack, serial, keygen.Merrill Moore - Boogie My Blues Away (2CD, 1990) Re-uploaD Fast Download via Rapidshare Hotfile Fileserve Filesonic Megaupload, Merrill Moore - Boogie My Blues Away (2CD, 1990) Re-uploaD Torrents and Emule Download or anything related.
Leave a Comment
Your Name:
E-Mail:
Add Comments:

Enter Code: