Jokleba - Outland (2014) {ECM 2413}

Download Now


Jokleba - Outland (2014) {ECM 2413}
Jokleba - Outland (2014) {ECM 2413}
EAC rip (secure mode) | FLAC (tracks)+CUE+LOG -> 177 Mb | MP3 @320 -> 114 Mb
Full Artwork @ 300 dpi (png) -> 153 Mb | 5% repair rar
© 2014 ECM Records | ECM 2413
Jazz / Experimental / Avant-Garde / Contemporary Jazz

"The Norwegian trio Jøkleba was formed in 1990, establishing itself as one of the most unpredictable groups on the Scandinavian scene. The present disc - the fifth Jøkleba album, but the first for ECM - finds old friends Jørgensen, Balke and Kleive working with pulse and colour and texture in collective music-making, emphasizing electronics, trumpet and voice, in freely created pieces which hint at relationships between inspiration and instability."

Jokleba - Outland (2014) {ECM 2413}


ECM INFO

Personnel:
Per Jørgensen: trumpet, vocals, kalimba, flute
Jon Balke: electronics, piano
Audun Kleive: electronics, drums, percussion

tracklist:
01 - Vridd 1
02 - Bell Jar
03 - Blind Owl
04 - Beyond the Glass
05 - The Nightwood
06 - Rodion
07 - Horla
08 - Vridd 2
09 - Tremens
10 - Brighton
11 - One flew over
12 - Curious incident
13 - Below the Vulcano
14 - Vridd 3

Exact Audio Copy V1.0 beta 3 from 29. August 2011

EAC extraction logfile from 7. March 2015, 1:09

Jokleba / Outland [ECM 2413]

Used drive : PLEXTOR DVDR PX-891SA Adapter: 2 ID: 0

Read mode : Secure
Utilize accurate stream : Yes
Defeat audio cache : Yes
Make use of C2 pointers : No

Read offset correction

: 6
Overread into Lead-In and Lead-Out : No
Fill up missing offset samples with silence : Yes
Delete leading and trailing silent blocks : No
Null samples used in CRC calculations : Yes
Used interface
: Native Win32 interface for Win NT & 2000
Gap handling
: Appended to previous track

Used output format : User Defined Encoder
Selected bitrate : 128 kBit/s
Quality : High
Add ID3 tag : No
Command line compressor : C:\Program Files (x86)\Exact Audio Copy\FLAC\FLAC.EXE
Additional command line options : -8 -V -T "ARTIST=%artist%" -T "TITLE=%title%" -T "ALBUM=%albumtitle%" -T "DATE=%year%" -T "TRACKNUMBER=%tracknr%" -T "TOTALTRACKS=%numtracks%" -T "GENRE=%genre%" -T "ALBUMARTIST=%albumartist%" -T "ALBUM ARTIST=%albumartist%" -T "COMMENT=EAC Secure Mode, Test & Copy, AccurateRip, FLAC -8" %source%

TOC of the extracted CD Track | Start | Length | Start sector | End sector
--1 | 0:00.00 | 1:52.29 | 0 | 8428 2 | 1:52.29 | 5:36.64 | 8429 | 33692 3 | 7:29.18 | 2:38.14 | 33693 | 45556 4 | 10:07.32 | 3:17.00 | 45557 | 60331 5 | 13:24.32 | 4:02.67 | 60332 | 78548 6 | 17:27.24 | 3:39.16 | 78549 | 94989 7 | 21:06.40 | 3:59.37 | 94990 | 112951 8 | 25:06.02 | 2:04.06 | 112952 | 122257 9 | 27:10.08 | 5:02.50 | 122258 | 144957
10 | 32:12.58 | 5:43.72 | 144958 | 170754
11 | 37:56.55 | 4:56.72 | 170755 | 193026
12 | 42:53.52 | 1:49.00 | 193027 | 201201
13 | 44:42.52 | 1:44.48 | 201202 | 209049
14 | 46:27.25 | 1:08.62 | 209050 | 214211

Track 1 Filename L:\flac rips\01 - Vridd 1.wav Pre-gap length 0:00:02.00 Peak level 33.4 %
Extraction speed 4.5 X
Track quality 100.0 %
Test CRC 8A4CDFD9
Copy CRC 8A4CDFD9
Accurately ripped (confidence 2) B8B47B4 (AR v2)
Copy OK

Track 2 Filename L:\flac rips\02 - Bell Jar.wav Pre-gap length 0:00:02.29 Peak level 96.0 %
Extraction speed 5.9 X
Track quality 100.0 %
Test CRC 365FC89F
Copy CRC 365FC89F
Accurately ripped (confidence 2) [0ECBB0EF] (AR v2)
Copy OK

Track 3 Filename L:\flac rips\03 - Blind Owl.wav Pre-gap length 0:00:03.64 Peak level 78.0 %
Extraction speed 5.9 X
Track quality 100.0 %
Test CRC BAEEEA13
Copy CRC BAEEEA13
Accurately ripped (confidence 2) [CB10C1AB] (AR v2)
Copy OK

Track 4 Filename L:\flac rips\04 - Beyond the Glass.wav Pre-gap length 0:00:02.64 Peak level 53.8 %
Extraction speed 6.4 X
Track quality 100.0 %
Test CRC 6F7BEA89
Copy CRC 6F7BEA89
Accurately ripped (confidence 2) [1DC1301B] (AR v2)
Copy OK

Track 5 Filename L:\flac rips\05 - The Nightwood.wav Pre-gap length 0:00:03.49 Peak level 55.5 %
Extraction speed 7.1 X
Track quality 100.0 %
Test CRC B8237E5E
Copy CRC B8237E5E
Accurately ripped (confidence 2) [FF650B6A] (AR v2)
Copy OK

Track 6 Filename L:\flac rips\06 - Rodion.wav Peak level 98.1 %
Extraction speed 7.4 X
Track quality 100.0 %
Test CRC 90DC2605
Copy CRC 90DC2605
Accurately ripped (confidence 2) [392CA0DA] (AR v2)
Copy OK

Track 7 Filename L:\flac rips\07 - Horla.wav Pre-gap length 0:00:02.71 Peak level 99.0 %
Extraction speed 7.8 X
Track quality 100.0 %
Test CRC 3BD3BC04
Copy CRC 3BD3BC04
Accurately ripped (confidence 2) [0D1D8A57] (AR v2)
Copy OK

Track 8 Filename L:\flac rips\08 - Vridd 2.wav Peak level 18.4 %
Extraction speed 7.2 X
Track quality 100.0 %
Test CRC 6206F6C0
Copy CRC 6206F6C0
Accurately ripped (confidence 2) [1375C81C] (AR v2)
Copy OK

Track 9 Filename L:\flac rips\09 - Tremens.wav Pre-gap length 0:00:03.33 Peak level 99.3 %
Extraction speed 8.7 X
Track quality 100.0 %
Test CRC 2586D166
Copy CRC 2586D166
Accurately ripped (confidence 2) [FD5385C0] (AR v2)
Copy OK

Track 10 Filename L:\flac rips\10 - Brighton.wav Pre-gap length 0:00:02.36 Peak level 83.0 %
Extraction speed 8.1 X
Track quality 99.9 %
Test CRC 04D671F6
Copy CRC 04D671F6
Accurately ripped (confidence 2) [20579CC1] (AR v2)
Copy OK

Track 11 Filename L:\flac rips\11 - One flew over.wav Pre-gap length 0:00:04.69 Peak level 77.0 %
Extraction speed 9.6 X
Track quality 100.0 %
Test CRC F2B684DA
Copy CRC F2B684DA
Accurately ripped (confidence 2) [D4835AFF] (AR v2)
Copy OK

Track 12 Filename L:\flac rips\12 - Curious incident.wav Pre-gap length 0:00:05.15 Peak level 81.7 %
Extraction speed 8.2 X
Track quality 100.0 %
Test CRC A094EB12
Copy CRC A094EB12
Accurately ripped (confidence 2) [3F6E561E] (AR v2)
Copy OK

Track 13 Filename L:\flac rips\13 - Below the Vulcano.wav Peak level 97.6 %
Extraction speed 8.4 X
Track quality 100.0 %
Test CRC C401B855
Copy CRC C401B855
Accurately ripped (confidence 2) CA8DF4C (AR v2)
Copy OK

Track 14 Filename L:\flac rips\14 - Vridd 3.wav Pre-gap length 0:00:03.63 Peak level 67.6 %
Extraction speed 7.3 X
Track quality 100.0 %
Test CRC F2BDDAF3
Copy CRC F2BDDAF3
Accurately ripped (confidence 2) [016C2BCC] (AR v2)
Copy OK

All tracks accurately ripped

No errors occurred

End of status report

==== Log checksum 7C783C8C17C4AED5DF024EB712A11C4B079D2900F282CD2647AF9802F14A7EAB ====

Jokleba - Outland (2014) {ECM 2413}

Jokleba - Outland (2014) {ECM 2413}


All thanks goes to the original releaser!
DOWNLOAD LINKS
Buy Premium From My Links To Get Resumable Support & Max Speed & To Support Me


Links are Interchangeable - No Password - Single Extraction
Direct Download

Tags: Jokleba, Outland

Jokleba - Outland (2014) {ECM 2413} Download via Hotfile Rapidshare Fileserve Megaupload & FileSonic, Jokleba - Outland (2014) {ECM 2413} free torrent downloads included crack, serial, keygen.Jokleba - Outland (2014) {ECM 2413} Fast Download via Rapidshare Hotfile Fileserve Filesonic Megaupload, Jokleba - Outland (2014) {ECM 2413} Torrents and Emule Download or anything related.
Leave a Comment
Your Name:
E-Mail:
Add Comments:

Enter Code: