Graham Parker & The Rumour - Heat Treatment (1976) Reissue 2001

Download Now

Graham Parker & The Rumour - Heat Treatment (1976) Reissue 2001

Graham Parker & The Rumour - Heat Treatment (1976) Reissue 2001
EAC | APE | Image (Cue&Log) ~ 276 Mb (incl 5%) | Mp3 (CBR320) ~ 107 Mb (incl 5%) | Scans included
Genre: Rock, Pub Rock, Rock & Roll | Label: Mercury | # 548 682-2 | Time: 00:41:39

"On his second album Heat Treatment, Graham Parker essentially offered more of the same thing that made Howlin' Wind such a bracing listen. However, his songwriting wasn't as consistent, with only a handful of songs -- like "Pourin' It All Out" and the title track -- making much of an impression. Unfortunately, the record was also tamed by the production of Mutt Lange, who polishes the record just enough to make the Rumour sound restrained. Which means, of course, the sheer musicality of the band can't save the lesser material. Heat Treatment remains an enjoyable listen -- at this stage of the game, Parker hadn't soured into a curmudgeon, and his weaker songs were still endearing -- but it's a disappointment in light of its predecessor."

Graham Parker at Allmusic
Graham Parker Website
Graham Parker at Wiki

Tracklist:

01. Heat Treatment (03:09)
02. That's What They All Say (03:46)
03. Turned Up Too Late (03:37)
04. Black Honey (03:57)
05. Hotel Chambermaid (02:59)
06. Pourin' It All Out (03:16)
07. Back Door Love (03:03)
08. Something You're Going Through (04:11)
09. Help Me Shake It (03:38)
10. Fool's Gold (04:14)
11. Hold Back The Night (03:01)
12. (Let Me Get) Sweet On You (02:44)


Exact Audio Copy V1.0 beta 3 from 29. August 2011

EAC extraction logfile from 1. February 2014, 10:11

Graham Parker & The Rumour / Heat Treatment

Used drive : ATAPI iHAS124 B Adapter: 1 ID: 1

Read mode : Secure
Utilize accurate stream : Yes
Defeat audio cache : Yes
Make use of C2 pointers : No

Read offset correction

: 6
Overread into Lead-In and Lead-Out : No
Fill up missing offset samples with silence : Yes
Delete leading and trailing silent blocks : No
Null samples used in CRC calculations : Yes
Used interface
: Native Win32 interface for Win NT & 2000

Used output format : Monkey's Audio Lossless Encoder
Selected bitrate : Extra High Lossless Compression
Quality : High
Add ID3 tag : No
Command line compressor : C:\Program Files\Monkey's Audio\MAC.exe

TOC of the extracted CD Track | Start | Length | Start sector | End sector
--1 | 0:00.00 | 3:09.63 | 0 | 14237 2 | 3:09.63 | 3:46.31 | 14238 | 31218 3 | 6:56.19 | 3:37.16 | 31219 | 47509 4 | 10:33.35 | 3:57.45 | 47510 | 65329 5 | 14:31.05 | 2:59.06 | 65330 | 78760 6 | 17:30.11 | 3:16.15 | 78761 | 93475 7 | 20:46.26 | 3:03.57 | 93476 | 107257 8 | 23:50.08 | 4:11.30 | 107258 | 126112 9 | 28:01.38 | 3:38.04 | 126113 | 142466
10 | 31:39.42 | 4:14.18 | 142467 | 161534
11 | 35:53.60 | 3:01.33 | 161535 | 175142
12 | 38:55.18 | 2:44.07 | 175143 | 187449

Range status and errors

Selected range Filename D:\I\Graham Parker & The Rumour - Heat Treatment (1976)\Graham Parker & The Rumour - Heat Treatment.wav Peak level 100.0 %
Extraction speed 7.2 X
Range quality 100.0 %
Test CRC 6C3F2884
Copy CRC 6C3F2884
Copy OK

No errors occurred

End of status report

==== Log checksum EF74E0684CD676B4F7DB28FE4BE307BA493FF134B03CFD206669C1548611F6C2 ====

foobar2000 1.2 / Dynamic Range Meter 1.1.1
log date: 2015-08-29 23:25:00

Analyzed: Graham Parker & The Rumour / Heat Treatment

DR Peak RMS Duration Track

DR10 -1.01 dB -13.32 dB 3:10 01-Heat Treatment
DR10 -1.20 dB -12.74 dB 3:46 02-That's What They All Say
DR12 -1.55 dB -15.12 dB 3:37 03-Turned Up Too Late
DR11 -1.05 dB -15.76 dB 3:58 04-Black Honey
DR10 -0.94 dB -12.38 dB 2:59 05-Hotel Chambermaid
DR10 -0.73 dB -12.03 dB 3:16 06-Pourin' It All Out
DR10 -1.56 dB -13.24 dB 3:04 07-Back Door Love
DR11 -1.01 dB -12.98 dB 4:11 08-Something You're Going Through
DR10 -0.76 dB -11.95 dB 3:38 09-Help Me Shake It
DR10 -0.85 dB -12.74 dB 4:14 10-Fool's Gold
DR11 0.00 dB -12.75 dB 3:01 11-Hold Back The Night
DR12 0.00 dB -13.17 dB 2:44 12-(Let Me Get) Sweet On You

Number of tracks: 12
Official DR value: DR10

Samplerate: 44100 Hz
Channels: 2
Bits per sample: 16
Bitrate: 860 kbps
Codec: Monkey's Audio

Graham Parker & The Rumour - Heat Treatment (1976) Reissue 2001

Graham Parker & The Rumour - Heat Treatment (1976) Reissue 2001

All thanks to original releaser - agrastas
Password: designol

DOWNLOAD LINKS
Buy Premium From My Links To Get Resumable Support & Max Speed & To Support Me


Links are Interchangeable - No Password - Single Extraction
Direct Download

Tags: Graham, Parker, Rumour, Treatment, Reissue

Graham Parker & The Rumour - Heat Treatment (1976) Reissue 2001 Download via Hotfile Rapidshare Fileserve Megaupload & FileSonic, Graham Parker & The Rumour - Heat Treatment (1976) Reissue 2001 free torrent downloads included crack, serial, keygen.Graham Parker & The Rumour - Heat Treatment (1976) Reissue 2001 Fast Download via Rapidshare Hotfile Fileserve Filesonic Megaupload, Graham Parker & The Rumour - Heat Treatment (1976) Reissue 2001 Torrents and Emule Download or anything related.
Leave a Comment
Your Name:
E-Mail:
Add Comments:

Enter Code: