Roger Waters/Ron Geesin - Music From The Body (1970) {1989 EMI CD}

Download Now

Roger Waters/Ron Geesin - Music From The Body (1970) {1989 EMI CD}

Roger Waters/Ron Geesin - Music From The Body (1970) {1989 EMI CD}
EAC Rip | FLAC with CUE and log | scans | 175 mb
MP3 CBR 320kbps | RAR | 97 mb
Genre: soundtrack, folk, classical, experimental, progressive rock

Music From The Body is the 1970 soundtrack album for the film The Body, directed by Roy Battersby. The music is a collaboration between Roger Waters (then of Pink Floyd) and Ron Geesin, who worked with Pink Floyd to co-write "Atom Heart Mother". Waters' pieces sound like what Pink Floyd were making between Ummagumma, Atom Heart Mother, and Zabriskie Point while Geesin is as twisted and unpredictable as much of his work has been. It sounds like what you'd expect from a "rock" soundtrack album from 1970, with music allegedly using parts of the body as a medium. The version of "Breathe" here has been said to be a precursor to what Waters would write again when putting together Dark Side Of The Moon. This is taken from the 1989 CD released by Harvest/EMI.
Roger Waters/Ron Geesin - Music From The Body (1970) {1989 EMI CD}

1. Our Song (1:34)
2. Sea Shell And Stone (2:08)
3. Red Stuff Writhe (1:19)
4. A Gentle Breeze Blew Through Life (1:12)
5. Lick Your Partners (0:35)
6. Bridge Passage For Three Plastic Teeth (0:34)
7. Chain Of Life (3:59)
8. The Womb Bit (2:06)
9. Embryo Thought (0:40)
10. March Past Of The Embryos (1:14)
11. More Than Seven Dwarfs In Penis-Land (2:00)
12. Dance Of The Red Corpuscles (2:07)
13. Body Transport (3:14)
14. Hand Dance - Full Evening Dress (1:04)
15. Breathe (2:50)
16. Old Folks Ascension (3:46)
17. Bedtime-Dream-Clime (2:03)
18. Piddle In Perspex (0:57)
19. Embryonic Womb-Walk (1:21)
20. Mrs. Throat Goes Walking (2:06)
21. Sea Shell And Soft Stone (1:56)
22. Give Birth To A Smile (2:43)

Exact Audio Copy V1.1 from 23. June 2015

EAC extraction logfile from 30. August 2015, 9:03

Roger Waters/Ron Geesin / Music From The Body

Used drive : TEAC DVD-ROM DV-28SW Adapter: 1 ID: 0

Read mode : Secure
Utilize accurate stream : Yes
Defeat audio cache : Yes
Make use of C2 pointers : No

Read offset correction

: 6
Overread into Lead-In and Lead-Out : No
Fill up missing offset samples with silence : Yes
Delete leading and trailing silent blocks : No
Null samples used in CRC calculations : Yes
Used interface
: Native Win32 interface for Win NT & 2000
Gap handling
: Appended to previous track

Used output format : Internal WAV Routines
Sample format : 44.100 Hz; 16 Bit; Stereo

TOC of the extracted CD Track | Start | Length | Start sector | End sector
--1 | 0:00.32 | 1:34.25 | 32 | 7106 2 | 1:34.57 | 2:08.23 | 7107 | 16729 3 | 3:43.05 | 1:19.30 | 16730 | 22684 4 | 5:02.35 | 1:12.25 | 22685 | 28109 5 | 6:14.60 | 0:35.47 | 28110 | 30781 6 | 6:50.32 | 0:34.70 | 30782 | 33401 7 | 7:25.27 | 3:59.60 | 33402 | 51386 8 | 11:25.12 | 2:06.45 | 51387 | 60881 9 | 13:31.57 | 0:40.45 | 60882 | 63926
10 | 14:12.27 | 1:14.13 | 63927 | 69489
11 | 15:26.40 | 2:00.70 | 69490 | 78559
12 | 17:27.35 | 2:07.07 | 78560 | 88091
13 | 19:34.42 | 3:14.08 | 88092 | 102649
14 | 22:48.50 | 1:04.07 | 102650 | 107456
15 | 23:52.57 | 2:50.45 | 107457 | 120251
16 | 26:43.27 | 3:46.50 | 120252 | 137251
17 | 30:30.02 | 2:03.63 | 137252 | 146539
18 | 32:33.65 | 0:57.17 | 146540 | 150831
19 | 33:31.07 | 1:21.55 | 150832 | 156961
20 | 34:52.62 | 2:06.63 | 156962 | 166474
21 | 36:59.50 | 1:56.37 | 166475 | 175211
22 | 38:56.12 | 2:43.63 | 175212 | 187499

Track 1 Filename C:\My Documents\My FLAC\Roger Waters, Ron Geesin - Music From The Body (1970) [FLAC] {1989 EMI CD}\01 - Our Song.wav Pre-gap length 0:00:02.32 Peak level 70.9 %
Extraction speed 2.2 X
Track quality 100.0 %
Test CRC 6E031D31
Copy CRC 6E031D31
Accurately ripped (confidence 31) [7901023D] (AR v2)
Copy OK

Track 2 Filename C:\My Documents\My FLAC\Roger Waters, Ron Geesin - Music From The Body (1970) [FLAC] {1989 EMI CD}\02 - Sea Shell And Stone.wav Pre-gap length 0:00:00.02 Peak level 31.4 %
Extraction speed 2.5 X
Track quality 100.0 %
Test CRC 707CA1B9
Copy CRC 707CA1B9
Accurately ripped (confidence 32) [EB3DC062] (AR v2)
Copy OK

Track 3 Filename C:\My Documents\My FLAC\Roger Waters, Ron Geesin - Music From The Body (1970) [FLAC] {1989 EMI CD}\03 - Red Stuff Writhe.wav Pre-gap length 0:00:00.03 Peak level 36.7 %
Extraction speed 2.4 X
Track quality 100.0 %
Test CRC F97CF0DE
Copy CRC F97CF0DE
Accurately ripped (confidence 31) [8EE9CA86] (AR v2)
Copy OK

Track 4 Filename C:\My Documents\My FLAC\Roger Waters, Ron Geesin - Music From The Body (1970) [FLAC] {1989 EMI CD}\04 - A Gentle Breeze Blrew Through Life.wav Pre-gap length 0:00:00.03 Peak level 59.5 %
Extraction speed 2.3 X
Track quality 100.0 %
Test CRC 7BF08002
Copy CRC 7BF08002
Accurately ripped (confidence 31) [68FE66C5] (AR v2)
Copy OK

Track 5 Filename C:\My Documents\My FLAC\Roger Waters, Ron Geesin - Music From The Body (1970) [FLAC] {1989 EMI CD}\05 - Lick Your Partners.wav Pre-gap length 0:00:00.03 Peak level 51.7 %
Extraction speed 1.7 X
Track quality 100.0 %
Test CRC C92B71BE
Copy CRC C92B71BE
Accurately ripped (confidence 30) [DB4EB0FF] (AR v2)
Copy OK

Track 6 Filename C:\My Documents\My FLAC\Roger Waters, Ron Geesin - Music From The Body (1970) [FLAC] {1989 EMI CD}\06 - Bridge Passage For Three Plastic Teeth.wav Pre-gap length 0:00:00.02 Peak level 48.8 %
Extraction speed 1.7 X
Track quality 100.0 %
Test CRC C62073FB
Copy CRC C62073FB
Accurately ripped (confidence 30) [E108C441] (AR v2)
Copy OK

Track 7 Filename C:\My Documents\My FLAC\Roger Waters, Ron Geesin - Music From The Body (1970) [FLAC] {1989 EMI CD}\07 - Chain Of Life.wav Pre-gap length 0:00:00.02 Peak level 32.3 %
Extraction speed 3.4 X
Track quality 100.0 %
Test CRC F6A41AF6
Copy CRC F6A41AF6
Accurately ripped (confidence 31) [E15CECE2] (AR v2)
Copy OK

Track 8 Filename C:\My Documents\My FLAC\Roger Waters, Ron Geesin - Music From The Body (1970) [FLAC] {1989 EMI CD}\08 - The Womb Bit.wav Pre-gap length 0:00:00.02 Peak level 55.1 %
Extraction speed 3.1 X
Track quality 100.0 %
Test CRC 27F8539E
Copy CRC 27F8539E
Accurately ripped (confidence 30) [D5ECC211] (AR v2)
Copy OK

Track 9 Filename C:\My Documents\My FLAC\Roger Waters, Ron Geesin - Music From The Body (1970) [FLAC] {1989 EMI CD}\09 - Embryo Thought.wav Pre-gap length 0:00:00.02 Peak level 35.1 %
Extraction speed 2.1 X
Track quality 100.0 %
Test CRC 292583CA
Copy CRC 292583CA
Accurately ripped (confidence 30) B6A34C7 (AR v2)
Copy OK

Track 10 Filename C:\My Documents\My FLAC\Roger Waters, Ron Geesin - Music From The Body (1970) [FLAC] {1989 EMI CD}\10 - March Past Of The Embryos.wav Pre-gap length 0:00:00.02 Peak level 34.8 %
Extraction speed 2.8 X
Track quality 100.0 %
Test CRC 7910DB5D
Copy CRC 7910DB5D
Accurately ripped (confidence 30) [3DA2EF0A] (AR v2)
Copy OK

Track 11 Filename C:\My Documents\My FLAC\Roger Waters, Ron Geesin - Music From The Body (1970) [FLAC] {1989 EMI CD}\11 - More Than Seven Dwarves In Penis-Land.wav Pre-gap length 0:00:00.03 Peak level 100.0 %
Extraction speed 3.3 X
Track quality 100.0 %
Test CRC A8AC77E6
Copy CRC A8AC77E6
Accurately ripped (confidence 30) [DB407232] (AR v2)
Copy OK

Track 12 Filename C:\My Documents\My FLAC\Roger Waters, Ron Geesin - Music From The Body (1970) [FLAC] {1989 EMI CD}\12 - Dance Of The Red Corpuscles.wav Pre-gap length 0:00:00.03 Peak level 72.8 %
Extraction speed 3.5 X
Track quality 100.0 %
Test CRC 2BE87380
Copy CRC 2BE87380
Accurately ripped (confidence 30) [09FCB901] (AR v2)
Copy OK

Track 13 Filename C:\My Documents\My FLAC\Roger Waters, Ron Geesin - Music From The Body (1970) [FLAC] {1989 EMI CD}\13 - Body Transport.wav Pre-gap length 0:00:00.02 Peak level 99.3 %
Extraction speed 4.0 X
Track quality 100.0 %
Test CRC 7E68EF1B
Copy CRC 7E68EF1B
Accurately ripped (confidence 30) [7A077642] (AR v2)
Copy OK

Track 14 Filename C:\My Documents\My FLAC\Roger Waters, Ron Geesin - Music From The Body (1970) [FLAC] {1989 EMI CD}\14 - Hand Dance - Full Evening Dress.wav Pre-gap length 0:00:00.03 Peak level 25.1 %
Extraction speed 2.0 X
Track quality 99.8 %
Test CRC 802028DF
Copy CRC 802028DF
Accurately ripped (confidence 30) [618CEA8F] (AR v2)
Copy OK

Track 15 Filename C:\My Documents\My FLAC\Roger Waters, Ron Geesin - Music From The Body (1970) [FLAC] {1989 EMI CD}\15 - Breathe.wav Pre-gap length 0:00:00.02 Peak level 42.0 %
Extraction speed 4.1 X
Track quality 100.0 %
Test CRC 9BA4EA00
Copy CRC 9BA4EA00
Accurately ripped (confidence 31) [3CC6092E] (AR v2)
Copy OK

Track 16 Filename C:\My Documents\My FLAC\Roger Waters, Ron Geesin - Music From The Body (1970) [FLAC] {1989 EMI CD}\16 - Old Folks Ascension.wav Pre-gap length 0:00:00.02 Peak level 88.9 %
Extraction speed 4.1 X
Track quality 100.0 %
Test CRC E213CB5A
Copy CRC E213CB5A
Accurately ripped (confidence 30) [C1CEF8F6] (AR v2)
Copy OK

Track 17 Filename C:\My Documents\My FLAC\Roger Waters, Ron Geesin - Music From The Body (1970) [FLAC] {1989 EMI CD}\17 - Bedtime-Dream-Clime.wav Pre-gap length 0:00:00.02 Peak level 20.4 %
Extraction speed 3.1 X
Track quality 99.9 %
Test CRC 44750B66
Copy CRC 44750B66
Accurately ripped (confidence 30) [8EF93550] (AR v2)
Copy OK

Track 18 Filename C:\My Documents\My FLAC\Roger Waters, Ron Geesin - Music From The Body (1970) [FLAC] {1989 EMI CD}\18 - Piddle In Perspex.wav Pre-gap length 0:00:00.03 Peak level 29.2 %
Extraction speed 3.3 X
Track quality 100.0 %
Test CRC 7CC34EC3
Copy CRC 7CC34EC3
Accurately ripped (confidence 30) [5ACF0DCA] (AR v2)
Copy OK

Track 19 Filename C:\My Documents\My FLAC\Roger Waters, Ron Geesin - Music From The Body (1970) [FLAC] {1989 EMI CD}\19 - Embryonic Womb-Walk.wav Pre-gap length 0:00:00.02 Peak level 30.9 %
Extraction speed 3.8 X
Track quality 100.0 %
Test CRC FE5AC106
Copy CRC FE5AC106
Accurately ripped (confidence 30) [E5DDED7D] (AR v2)
Copy OK

Track 20 Filename C:\My Documents\My FLAC\Roger Waters, Ron Geesin - Music From The Body (1970) [FLAC] {1989 EMI CD}\20 - Mrs. Throat Goes Walking.wav Pre-gap length 0:00:00.02 Peak level 72.3 %
Extraction speed 4.2 X
Track quality 100.0 %
Test CRC E6E6E96A
Copy CRC E6E6E96A
Accurately ripped (confidence 30) [76AC5F7D] (AR v2)
Copy OK

Track 21 Filename C:\My Documents\My FLAC\Roger Waters, Ron Geesin - Music From The Body (1970) [FLAC] {1989 EMI CD}\21 - Sea Shell And Soft Stone.wav Pre-gap length 0:00:00.03 Peak level 44.6 %
Extraction speed 3.3 X
Track quality 99.9 %
Test CRC C3696892
Copy CRC C3696892
Accurately ripped (confidence 30) [0BF06466] (AR v2)
Copy OK

Track 22 Filename C:\My Documents\My FLAC\Roger Waters, Ron Geesin - Music From The Body (1970) [FLAC] {1989 EMI CD}\22 - Give Birth To A Smile.wav Pre-gap length 0:00:00.02 Peak level 99.0 %
Extraction speed 4.7 X
Track quality 100.0 %
Test CRC 5B1BD353
Copy CRC 5B1BD353
Accurately ripped (confidence 31) [0F42A968] (AR v2)
Copy OK

All tracks accurately ripped

No errors occurred

End of status report

- CUETools DB Plugin V2.1.6

[CTDB TOCID: lxYnmwan.83udsYsMAb9hxQN9Kg-] found
Submit result: lxYnmwan.83udsYsMAb9hxQN9Kg- has been confirmed
Track | CTDB Status
1 | (11/11) Accurately ripped
2 | (10/11) Accurately ripped
3 | (10/11) Accurately ripped
4 | (10/11) Accurately ripped
5 | (10/11) Accurately ripped
6 | (10/11) Accurately ripped
7 | (10/11) Accurately ripped
8 | (10/11) Accurately ripped
9 | (10/11) Accurately ripped
10 | (10/11) Accurately ripped
11 | (10/11) Accurately ripped
12 | (10/11) Accurately ripped
13 | (10/11) Accurately ripped
14 | (10/11) Accurately ripped
15 | (10/11) Accurately ripped
16 | (10/11) Accurately ripped
17 | (10/11) Accurately ripped
18 | (10/11) Accurately ripped
19 | (10/11) Accurately ripped
20 | (10/11) Accurately ripped
21 | (10/11) Accurately ripped
22 | (10/11) Accurately ripped

Roger Waters/Ron Geesin - Music From The Body (1970) {1989 EMI CD}

DOWNLOAD LINKS
Buy Premium From My Links To Get Resumable Support & Max Speed & To Support Me


Links are Interchangeable - No Password - Single Extraction
Direct Download

Tags: Waters, Geesin

Roger Waters/Ron Geesin - Music From The Body (1970) {1989 EMI CD} Download via Hotfile Rapidshare Fileserve Megaupload & FileSonic, Roger Waters/Ron Geesin - Music From The Body (1970) {1989 EMI CD} free torrent downloads included crack, serial, keygen.Roger Waters/Ron Geesin - Music From The Body (1970) {1989 EMI CD} Fast Download via Rapidshare Hotfile Fileserve Filesonic Megaupload, Roger Waters/Ron Geesin - Music From The Body (1970) {1989 EMI CD} Torrents and Emule Download or anything related.
Leave a Comment
Your Name:
E-Mail:
Add Comments:

Enter Code: