Bill Haley And His Comets - Birth Of A Legend (2004) Re-uploaD

Download Now

Bill Haley And His Comets - Birth Of A Legend (2004) Re-uploaD

Bill Haley And His Comets - Birth Of A Legend (2004)
EAC-FLAC+CUE+LOG - 297 MB | Full Covers | MP3 CBR 320 Kbps - 148 MB
Rock & Roll / Country / Rockabilly | 61:17 minutes | Label: Magic Records, France

A must for Bill Haley fans who want to complete their collection with his early recordings. This 24 track CD includes some favourites like "Rock the joint" and "Crazy man crazy" but also some tracks such as " Real Rock Drive" and "Sundown Boogie" which may not be as familiar.
Tracklist

01. Rocket 88
02. Green Tree Boogie
03. Juke Box Cannonball
04. Sundown Boogie
05. Rock The Joint
06. Rockin' Chair On The Moon
07. Dance With A Dolly
08. Real Rock Drive
09. Stop Beatin' Round The Mulberry Bush
10. Crazy, Man, Crazy
11. Watcha Gonna Do
12. Pat-A-Cake
13. Fractured
14. Live It Up
15. Farewell, So Long, Goodbye
16. I'll Be True
17. Ten Little Indians
18. Tearstains On My Heart
19. Icy Heart
20. Candy Kisses
21. Four Leaf Clover Blues
22. My Sweet Little Girl From Nevada
23. Rock Around The Clock
24. Bill Haley Talks About His Early Career To Jacques Barsamian

Exact Audio Copy V1.0 beta 2 from 29. April 2011

EAC extraction logfile from 25. February 2012, 13:51

Bill Haley And His Comets / Birth Of A Legend

Used drive : _NEC DVD_RW ND-3550A Adapter: 1 ID: 0

Read mode : Secure
Utilize accurate stream : Yes
Defeat audio cache : Yes
Make use of C2 pointers : No

Read offset correction

: 48
Overread into Lead-In and Lead-Out : No
Fill up missing offset samples with silence : Yes
Delete leading and trailing silent blocks : No
Null samples used in CRC calculations : Yes
Used interface
: Native Win32 interface for Win NT & 2000

Used output format : User Defined Encoder
Selected bitrate : 768 kBit/s
Quality : High
Add ID3 tag : No
Command line compressor : C:\Program Files\Exact Audio Copy\FLAC\FLAC.EXE
Additional command line options : -6 -V -T "ARTIST=%artist%" -T "TITLE=%title%" -T "ALBUM=%albumtitle%" -T "DATE=%year%" -T "TRACKNUMBER=%tracknr%" -T "GENRE=%genre%" -T "COMMENT=%comment%" -T "BAND=%albuminterpret%" -T "COMPOSER=%composer%" %haslyrics%--ta

TOC of the extracted CD Track | Start | Length | Start sector | End sector
--1 | 0:00.00 | 2:29.42 | 0 | 11216 2 | 2:29.42 | 2:47.66 | 11217 | 23807 3 | 5:17.33 | 2:17.09 | 23808 | 34091 4 | 7:34.42 | 2:27.16 | 34092 | 45132 5 | 10:01.58 | 2:12.44 | 45133 | 55076 6 | 12:14.27 | 2:49.73 | 55077 | 67824 7 | 15:04.25 | 2:28.36 | 67825 | 78960 8 | 17:32.61 | 2:17.61 | 78961 | 89296 9 | 19:50.47 | 2:23.11 | 89297 | 100032
10 | 22:13.58 | 2:38.27 | 100033 | 111909
11 | 24:52.10 | 2:28.37 | 111910 | 123046
12 | 27:20.47 | 2:18.65 | 123047 | 133461
13 | 29:39.37 | 2:08.65 | 133462 | 143126
14 | 31:48.27 | 2:50.59 | 143127 | 155935
15 | 34:39.11 | 2:17.69 | 155936 | 166279
16 | 36:57.05 | 2:04.69 | 166280 | 175648
17 | 39:01.74 | 1:54.18 | 175649 | 184216
18 | 40:56.17 | 2:51.54 | 184217 | 197095
19 | 43:47.71 | 2:54.37 | 197096 | 210182
20 | 46:42.33 | 2:37.59 | 210183 | 222016
21 | 49:20.17 | 2:46.10 | 222017 | 234476
22 | 52:06.27 | 2:22.25 | 234477 | 245151
23 | 54:28.52 | 2:46.63 | 245152 | 257664
24 | 57:15.40 | 4:01.35 | 257665 | 275774

Range status and errors

Selected range Filename D:\1\Bill Haley And His Comets - Birth Of A Legend (2004)\Bill Haley And His Comets - Birth Of A Legend.wav Peak level 98.7 %
Extraction speed 3.5 X
Range quality 99.8 %
Test CRC 591A156A
Copy CRC 591A156A
Copy OK

No errors occurred


AccurateRip summary

Track 1 not present in database
Track 2 not present in database
Track 3 not present in database
Track 4 not present in database
Track 5 not present in database
Track 6 not present in database
Track 7 not present in database
Track 8 not present in database
Track 9 not present in database
Track 10 not present in database
Track 11 not present in database
Track 12 not present in database
Track 13 not present in database
Track 14 not present in database
Track 15 not present in database
Track 16 not present in database
Track 17 not present in database
Track 18 not present in database
Track 19 not present in database
Track 20 not present in database
Track 21 not present in database
Track 22 not present in database
Track 23 not present in database
Track 24 not present in database

None of the tracks are present in the AccurateRip database

End of status report

==== Log checksum B56A6985D2CB8CF9643244FBE1B9DA12FB679BEB467E8B36BB8E7AEFE0294DBA ====
DOWNLOAD LINKS
Buy Premium From My Links To Get Resumable Support & Max Speed & To Support Me


Links are Interchangeable - No Password - Single Extraction
Direct Download

Tags: Comets, Legend, uploaD

Bill Haley And His Comets - Birth Of A Legend (2004) Re-uploaD Download via Hotfile Rapidshare Fileserve Megaupload & FileSonic, Bill Haley And His Comets - Birth Of A Legend (2004) Re-uploaD free torrent downloads included crack, serial, keygen.Bill Haley And His Comets - Birth Of A Legend (2004) Re-uploaD Fast Download via Rapidshare Hotfile Fileserve Filesonic Megaupload, Bill Haley And His Comets - Birth Of A Legend (2004) Re-uploaD Torrents and Emule Download or anything related.
Leave a Comment
Your Name:
E-Mail:
Add Comments:

Enter Code: