The Bob Seger System - Noah (1969)

Download Now

The Bob Seger System - Noah (1969)

The Bob Seger System - Noah (1969)
EAC | Flac(Image) + Cue + Log & MP3 CBR 320Kbps
2008 | Lost Diamonds, 8000 2 2 | ~ 264 or 104 Mb | Scans(600dpi, jpg) -> 26 Mb
Psychedelic Rock / Pop Rock

"For reasons never entirely explained, Bob Seger suffered a bit of a breakdown shortly after Ramblin' Gamblin' Man, so he decided to bring Tom Neme, a guitarist/pianist, into the Bob Seger System to help lighten the load and share the burden..."


Tracklist:

01. Noah (Bob Seger) 02:55
02. Innervenus Eyes (Dan Honaker, Pep Perrine, Seger) 02:38
03. Lonely Man (Tom Neme) 03:09
04. Loneliness Is a Feeling (Neme) 03:00
05. Cat (Honaker, Perrine, Seger) 06:15
06. Jumpin' Humpin' Hip Hypocrite (Neme) 03:08
07. Follow the Children (Neme) 03:24
08. Johnson, Lennie (Honaker) 03:03
09. Paint Them a Picture Jane (Neme) 04:04
10. Death Row (Seger) 02:53

Bonus Tracks:
11. East Side Story (Seger) 02:27
12. Vagrant Winter (Seger) 02:17
13. Ballad of the Yellow Beret (Seger) 02:29
14. Heavy Music - Part I (Seger) 02:37

Musicians:

Bob Seger - guitar, rhythm guitar, vocals
Dan Honaker - bass, guitar, vocals
Tom Neme - guitar, piano, rhythm guitar, keyboard, vocals
Pep Perrine - percussion, drums, vocals
Bob Schultz - organ, piano, keyboard, saxophone, vocals, background vocals


Exact Audio Copy V0.99 prebeta 5 from 4. May 2009

EAC extraction logfile from 22. April 2010, 21:54

The Bob Seger System / Noah

Used drive : HL-DT-STDVDRAM GSA-H10A Adapter: 4 ID: 1

Read mode : Secure
Utilize accurate stream : Yes
Defeat audio cache : Yes
Make use of C2 pointers : No

Read offset correction

: 667
Overread into Lead-In and Lead-Out : No
Fill up missing offset samples with silence : Yes
Delete leading and trailing silent blocks : No
Null samples used in CRC calculations : Yes
Used interface
: Native Win32 interface for Win NT & 2000
Gap handling
: Appended to previous track

Used output format : User Defined Encoder
Selected bitrate : 128 kBit/s
Quality : High
Add ID3 tag : No
Command line compressor : C:\Program Files\Exact Audio Copy\iTunesEncode\iTunesEncode.exe
Additional command line options : -e "Lossless Encoder" -a "%a" -l "%g" -t "%t" -g "%m" -y %y -n %n -i %s -o %d

TOC of the extracted CD Track | Start | Length | Start sector | End sector
--1 | 0:00.00 | 2:55.34 | 0 | 13158 2 | 2:55.34 | 2:37.56 | 13159 | 24989 3 | 5:33.15 | 3:08.70 | 24990 | 39159 4 | 8:42.10 | 2:59.50 | 39160 | 52634 5 | 11:41.60 | 6:15.32 | 52635 | 80791 6 | 17:57.17 | 3:08.32 | 80792 | 94923 7 | 21:05.49 | 3:24.31 | 94924 | 110254 8 | 24:30.05 | 3:03.30 | 110255 | 124009 9 | 27:33.35 | 4:04.10 | 124010 | 142319
10 | 31:37.45 | 2:53.04 | 142320 | 155298
11 | 34:30.49 | 2:26.52 | 155299 | 166300
12 | 36:57.26 | 2:16.66 | 166301 | 176566
13 | 39:14.17 | 2:28.40 | 176567 | 187706
14 | 41:42.57 | 2:36.70 | 187707 | 199476

Track 1 Filename D:\Music\iTunes\EAC\The Bob Seger System\Noah\01 Noah.wav Pre-gap length 0:00:02.00 Peak level 98.2 %
Track quality 100.0 %
Test CRC 885F7575
Copy CRC 885F7575
Cannot be verified as accurate (confidence 1) [C9DD5F13], AccurateRip returned [59F5A143]
Copy OK

Track 2 Filename D:\Music\iTunes\EAC\The Bob Seger System\Noah\02 Innervenus Eyes.wav Peak level 98.8 %
Track quality 99.9 %
Test CRC EBBAFFB6
Copy CRC EBBAFFB6
Cannot be verified as accurate (confidence 1) [4467C6AE], AccurateRip returned [9DF89D76]
Copy OK

Track 3 Filename D:\Music\iTunes\EAC\The Bob Seger System\Noah\03 Lonely Man.wav Peak level 97.7 %
Track quality 99.9 %
Test CRC 2DCB474F
Copy CRC 2DCB474F
Cannot be verified as accurate (confidence 1) [C4325612], AccurateRip returned [44769F82]
Copy OK

Track 4 Filename D:\Music\iTunes\EAC\The Bob Seger System\Noah\04 Loneliness Is a Feeling.wav Peak level 97.7 %
Track quality 99.9 %
Test CRC 1DEDEA8D
Copy CRC 1DEDEA8D
Cannot be verified as accurate (confidence 1) [5A5F3301], AccurateRip returned [9CFC7029]
Copy OK

Track 5 Filename D:\Music\iTunes\EAC\The Bob Seger System\Noah\05 Cat.wav Peak level 98.6 %
Track quality 100.0 %
Test CRC 5C73390C
Copy CRC 5C73390C
Cannot be verified as accurate (confidence 1) [1F4C3551], AccurateRip returned [968C6231]
Copy OK

Track 6 Filename D:\Music\iTunes\EAC\The Bob Seger System\Noah\06 Jumpin' Humpin' Hip Hypocrite.wav Peak level 97.7 %
Track quality 100.0 %
Test CRC 03E4114E
Copy CRC 03E4114E
Cannot be verified as accurate (confidence 1) [71B16C27], AccurateRip returned [FC5BE8A7]
Copy OK

Track 7 Filename D:\Music\iTunes\EAC\The Bob Seger System\Noah\07 Follow the Children.wav Peak level 97.7 %
Track quality 100.0 %
Test CRC 59F99712
Copy CRC 59F99712
Cannot be verified as accurate (confidence 1) [7F072598], AccurateRip returned [46307BA8]
Copy OK

Track 8 Filename D:\Music\iTunes\EAC\The Bob Seger System\Noah\08 Lennie Johnson.wav Peak level 97.7 %
Track quality 100.0 %
Test CRC A71C060A
Copy CRC A71C060A
Cannot be verified as accurate (confidence 1) [2721CC7F], AccurateRip returned [5524D507]
Copy OK

Track 9 Filename D:\Music\iTunes\EAC\The Bob Seger System\Noah\09 Paint Them a Picture.wav Peak level 97.7 %
Track quality 100.0 %
Test CRC 23E15064
Copy CRC 23E15064
Cannot be verified as accurate (confidence 1) [5CD6B57C], AccurateRip returned [8B1B1BA4]
Copy OK

Track 10 Filename D:\Music\iTunes\EAC\The Bob Seger System\Noah\10 Death Row.wav Peak level 98.3 %
Track quality 100.0 %
Test CRC 12FC561C
Copy CRC 12FC561C
Cannot be verified as accurate (confidence 1) [318ABD64], AccurateRip returned [3708EA1C]
Copy OK

Track 11 Filename D:\Music\iTunes\EAC\The Bob Seger System\Noah\11 East Side Story onus Track.wav Peak level 94.1 %
Track quality 100.0 %
Test CRC 9FA60508
Copy CRC 9FA60508
Cannot be verified as accurate (confidence 1) [DA7741C8], AccurateRip returned [4F13A3F0]
Copy OK

Track 12 Filename D:\Music\iTunes\EAC\The Bob Seger System\Noah\12 Vagrant Winter onus Track.wav Peak level 96.7 %
Track quality 100.0 %
Test CRC FBA10D5F
Copy CRC FBA10D5F
Cannot be verified as accurate (confidence 1) [9FCF3878], AccurateRip returned [6FC61238]
Copy OK

Track 13 Filename D:\Music\iTunes\EAC\The Bob Seger System\Noah\13 Ballad of the Yellow Beret onus Track.wav Peak level 97.4 %
Track quality 100.0 %
Test CRC 7F4AA192
Copy CRC 7F4AA192
Cannot be verified as accurate (confidence 1) [52DCE00A], AccurateRip returned [DA1C7BDA]
Copy OK

Track 14 Filename D:\Music\iTunes\EAC\The Bob Seger System\Noah\14 Heavy Music - Part 1 onus Track.wav Peak level 97.7 %
Track quality 100.0 %
Test CRC C03EC0DC
Copy CRC C03EC0DC
Cannot be verified as accurate (confidence 1) [DD19597A], AccurateRip returned [EA5CDC92]
Copy OK

No tracks could be verified as accurate
You may have a different pressing from the one(s) in the database

No errors occurred

End of status report

foobar2000 1.2.9 / Dynamic Range Meter 1.1.1
log date: 2015-08-31 01:25:43

Analyzed: The Bob Seger System / Noah

DR Peak RMS Duration Track

DR8 -0.16 dB -9.99 dB 2:55 01-Noah
DR9 -0.10 dB -11.33 dB 2:38 02-Innervenus Eyes
DR11 -0.20 dB -12.63 dB 3:09 03-Lonely Man
DR10 -0.20 dB -12.77 dB 3:00 04-Loneliness Is a Feeling
DR12 -0.12 dB -14.46 dB 6:15 05-Cat
DR12 -0.20 dB -14.10 dB 3:08 06-Jumpin' Humpin' Hip Hypocrite
DR12 -0.20 dB -14.08 dB 3:24 07-Follow the Children
DR12 -0.20 dB -14.99 dB 3:03 08-Lennie Johnson
DR12 -0.20 dB -14.37 dB 4:04 09-Paint Them a Picture
DR9 -0.15 dB -10.19 dB 2:53 10-Death Row
DR10 -0.52 dB -12.29 dB 2:27 11-East Side Story onus Track
DR10 -0.28 dB -11.64 dB 2:17 12-Vagrant Winter onus Track
DR12 -0.22 dB -14.09 dB 2:29 13-Ballad of the Yellow Beret onus Track
DR10 -0.20 dB -11.79 dB 2:37 14-Heavy Music - Part 1 onus Track

Number of tracks: 14
Official DR value: DR11

Samplerate: 44100 Hz
Channels: 2
Bits per sample: 16
Bitrate: 809 kbps
Codec: FLAC

[CUETools log; Date: 31.08.2015 1:25:31; Version: 2.1.4]
[CTDB TOCID: donUn45X5olxkI.NL3Qy0raK7.Q-] found.
Track | CTDB Status
1 | (1/1) Accurately ripped
2 | (1/1) Accurately ripped
3 | (1/1) Accurately ripped
4 | (1/1) Accurately ripped
5 | (1/1) Accurately ripped
6 | (1/1) Accurately ripped
7 | (1/1) Accurately ripped
8 | (1/1) Accurately ripped
9 | (1/1) Accurately ripped
10 | (1/1) Accurately ripped
11 | (1/1) Accurately ripped
12 | (1/1) Accurately ripped
13 | (1/1) Accurately ripped
14 | (1/1) Accurately ripped
[AccurateRip ID: 0017eb6c-00fefd43-c00a630e] found.
Track [ CRC | V2 ] Status
01 [c9dd5f13|3e13694e] (0+3/3) Accurately ripped
02 [4467c6ae|74177391] (0+3/3) Accurately ripped
03 [c4325612|11c75870] (0+3/3) Accurately ripped
04 [5a5f3301|31e50005] (0+3/3) Accurately ripped
05 [1f4c3551|e3b952d2] (0+3/3) Accurately ripped
06 [71b16c27|daea1824] (0+3/3) Accurately ripped
07 [7f072598|59058785] (0+3/3) Accurately ripped
08 [2721cc7f|36cf020b] (0+3/3) Accurately ripped
09 [5cd6b57c|3cc9c89a] (0+3/3) Accurately ripped
10 [318abd64|2f151f21] (0+3/3) Accurately ripped
11 [da7741c8|65d199bf] (0+3/3) Accurately ripped
12 [9fcf3878|6de5d95d] (0+3/3) Accurately ripped
13 [52dce00a|e866ff36] (0+3/3) Accurately ripped
14 [dd19597a|df07436f] (0+3/3) Accurately ripped
Offsetted by 664:
01 [59f5a143] (0/3) No match (V2 was not tested)
02 [9df89d76] (0/3) No match (V2 was not tested)
03 [44769f82] (0/3) No match (V2 was not tested)
04 [9cfc7029] (0/3) No match (V2 was not tested)
05 [968c6231] (0/3) No match (V2 was not tested)
06 [fc5be8a7] (0/3) No match (V2 was not tested)
07 [46307ba8] (0/3) No match (V2 was not tested)
08 [5524d507] (0/3) No match (V2 was not tested)
09 [8b1b1ba4] (0/3) No match (V2 was not tested)
10 [3708ea1c] (0/3) No match (V2 was not tested)
11 [4f13a3f0] (0/3) No match (V2 was not tested)
12 [6fc61238] (0/3) No match (V2 was not tested)
13 [da1c7bda] (0/3) No match (V2 was not tested)
14 [ea5cdc92] (0/3) No match (V2 was not tested)

Track Peak [ CRC32 ] [W/O NULL] [ LOG ]
-- 98,8 [38C63E39] [4140218C]
01 98,2 [885F7575] [DD5D5834] CRC32
02 98,8 [EBBAFFB6] [E8092838] CRC32
03 97,7 [2DCB474F] [CD8FE19C] CRC32
04 97,7 [1DEDEA8D] [704AFD74] CRC32
05 98,6 [5C73390C] [C2205476] CRC32
06 97,7 [03E4114E] [6CDE50C0] CRC32
07 97,7 [59F99712] [49C7500B] CRC32
08 97,7 [A71C060A] [0F9E8204] CRC32
09 97,7 [23E15064] [FEB95667] CRC32
10 98,3 [12FC561C] [136F603F] CRC32
11 94,1 [9FA60508] [609D2049] CRC32
12 96,7 [FBA10D5F] [D0C4B54D] CRC32
13 97,4 [7F4AA192] [0E37444B] CRC32
14 97,7 [C03EC0DC] [718280B0] CRC32

The Bob Seger System - Noah (1969)

DOWNLOAD LINKS
Buy Premium From My Links To Get Resumable Support & Max Speed & To Support Me


Links are Interchangeable - No Password - Single Extraction
Direct Download

Tags: System

The Bob Seger System - Noah (1969) Download via Hotfile Rapidshare Fileserve Megaupload & FileSonic, The Bob Seger System - Noah (1969) free torrent downloads included crack, serial, keygen.The Bob Seger System - Noah (1969) Fast Download via Rapidshare Hotfile Fileserve Filesonic Megaupload, The Bob Seger System - Noah (1969) Torrents and Emule Download or anything related.
Leave a Comment
Your Name:
E-Mail:
Add Comments:

Enter Code: