Rod Stewart - Foolish Behaviour (1980)

Download Now

Rod Stewart - Foolish Behaviour (1980)

Rod Stewart - Foolish Behaviour (1980)
EAC | Flac(Image) + Cue + Log & MP3 CBR 320Kbps
Warner Bros., 8140332 | Australia | ~ 279 or 105 Mb | Scans(png) -> 47 Mb
Pop Rock / Classic Rock

"Foolish Behaviour is Rod Stewart's tenth studio album released on 21 November 1980 (see 1980 in music) and on the Riva label in the United Kingdom (RVLP 11) and on Warner Bros. Records in both The United States (HS 3485) and Germany (WB 56 865). The tracks were recorded at The Record Plant Studios and Cherokee Studios in Los Angeles from February to September, 1980..."


Tracklist:

01. Foolish Behaviour 04:23
02. Better Off Dead (Stewart, Chen, Savigar, Carmine Appice) 03:08
03. Oh God, I Wish I Was Home Tonight 05:00
04. Gi'me Wings 03:45
05. She Won't Dance With Me (Stewart, Jorge Ben) 02:26
06. Say It Ain't True 04:03
07. My Girl (Stewart, Chen, Savigar, Cregan, Grainger, Appice) 04:25
08. So Soon We Change 03:46
09. Somebody Special (Stewart, Chen, Savigar, Cregan, Steve Harley) 04:26
10. Passion 05:30

All songs composed by Rod Stewart, Phil Chen, Kevin Savigar, Jim Cregan and Gary Grainger; except where noted.

Exact Audio Copy V1.0 beta 3 from 29. August 2011

EAC extraction logfile from 25. August 2015, 23:40

Rod Stewart / Foolish Behaviour (8140332)

Used drive : SONY CD-RW CRX210E1 Adapter: 0 ID: 1

Read mode : Secure
Utilize accurate stream : Yes
Defeat audio cache : Yes
Make use of C2 pointers : No

Read offset correction

: 6
Overread into Lead-In and Lead-Out : No
Fill up missing offset samples with silence : Yes
Delete leading and trailing silent blocks : No
Null samples used in CRC calculations : Yes
Used interface
: Native Win32 interface for Win NT & 2000

Used output format : Internal WAV Routines
Sample format : 44.100 Hz; 16 Bit; Stereo

TOC of the extracted CD Track | Start | Length | Start sector | End sector
--1 | 0:00.00 | 4:23.20 | 0 | 19744 2 | 4:23.20 | 3:08.32 | 19745 | 33876 3 | 7:31.52 | 5:00.43 | 33877 | 56419 4 | 12:32.20 | 3:45.10 | 56420 | 73304 5 | 16:17.30 | 2:26.02 | 73305 | 84256 6 | 18:43.32 | 4:03.63 | 84257 | 102544 7 | 22:47.20 | 4:25.50 | 102545 | 122469 8 | 27:12.70 | 3:46.00 | 122470 | 139419 9 | 30:58.70 | 4:26.05 | 139420 | 159374
10 | 35:25.00 | 5:30.20 | 159375 | 184144

Range status and errors

Selected range Filename D:\Ready.zp\Rod Stewart - Foolish Behaviour (8140332).wav Peak level 87.9 %
Extraction speed 14.7 X
Range quality 100.0 %
Test CRC 16920D31
Copy CRC 16920D31
Copy OK

No errors occurred


AccurateRip summary

Track 1 accurately ripped (confidence 1) [44432B88] (AR v2)
Track 2 accurately ripped (confidence 1) [360D89FA] (AR v2)
Track 3 accurately ripped (confidence 1) [23948EDC] (AR v2)
Track 4 accurately ripped (confidence 1) [C72EB2DE] (AR v2)
Track 5 accurately ripped (confidence 1) [D37BAC14] (AR v2)
Track 6 accurately ripped (confidence 1) [92545F83] (AR v2)
Track 7 accurately ripped (confidence 1) [310CC7E6] (AR v2)
Track 8 accurately ripped (confidence 1) [A4C99DAE] (AR v2)
Track 9 accurately ripped (confidence 1) [3B050F61] (AR v2)
Track 10 accurately ripped (confidence 1) [3D4BF9B9] (AR v2)

All tracks accurately ripped

End of status report

==== Log checksum 5B4708EF72826DA284718B8D7234B601DA841FD0426C85E7D2FFDEDDC781A4B2 ====

foobar2000 1.2.9 / Dynamic Range Meter 1.1.1
log date: 2015-08-30 14:03:23

Analyzed: Rod Stewart / Foolish Behaviour (8140332)

DR Peak RMS Duration Track

DR8 -1.11 dB -10.82 dB 4:23 01-Foolish Behaviour
DR8 -1.19 dB -10.52 dB 3:08 02-Better Off Dead
DR10 -1.19 dB -12.79 dB 5:01 03-Oh God, I Wish I Was Home Tonight
DR9 -1.36 dB -11.95 dB 3:45 04-Gi'me Wings
DR9 -1.71 dB -11.58 dB 2:26 05-She Won't Dance With Me
DR10 -1.34 dB -14.19 dB 4:04 06-Say It Ain't True
DR9 -1.51 dB -12.82 dB 4:26 07-My Girl
DR13 -1.33 dB -16.02 dB 3:46 08-So Soon We Change
DR11 -1.35 dB -13.77 dB 4:26 09-Somebody Special
DR9 -1.45 dB -12.63 dB 5:30 10-Passion

Number of tracks: 10
Official DR value: DR10

Samplerate: 44100 Hz
Channels: 2
Bits per sample: 16
Bitrate: 895 kbps
Codec: FLAC

[CUETools log; Date: 26.08.2015 12:31:52; Version: 2.1.4]
[CTDB TOCID: PN.ftjbND1eKY8ITsUdsbakD0NE-] disk not present in database.
[AccurateRip ID: 000ee2c7-00772e09-8909970a] found.
Track [ CRC | V2 ] Status
01 [2fd2dfd0|44432b88] (0+1/2) Accurately ripped
02 [4707964f|360d89fa] (0+1/2) Accurately ripped
03 [e96469b6|23948edc] (0+1/2) Accurately ripped
04 [c2f349aa|c72eb2de] (0+1/2) Accurately ripped
05 [3d2a56bb|d37bac14] (0+1/2) Accurately ripped
06 [1a30e73e|92545f83] (0+1/2) Accurately ripped
07 [076f8057|310cc7e6] (0+1/2) Accurately ripped
08 a2d4fde|a4c99dae (0+1/2) Accurately ripped
09 [f2bc6e5a|3b050f61] (0+1/2) Accurately ripped
10 [2b50b92f|3d4bf9b9] (0+1/2) Accurately ripped

Track Peak [ CRC32 ] [W/O NULL] [ LOG ]
-- 87,9 [16920D31] FE67F64 CRC32
01 87,9 [3BEBB40F] [4D19F955]
02 87,1 [558BF725] [343D99AA]
03 87,1 [E7A2EBC6] 83E58D8
04 85,4 6594601 [15658D0C]
05 82,0 EF222B6 [8537E9AD]
06 85,7 3F83306 [6CB32DD7]
07 84,0 [54B76A32] [CEA10E8B]
08 85,8 [CBF91999] [171FB419]
09 85,5 [11E45478] [173EFF0B]
10 84,6 [79DF1A4B] [8D575B49]

Rod Stewart - Foolish Behaviour (1980)

DOWNLOAD:
Buy Premium To Support Me & Get Resumable Support & Max Speed


Links are Interchangeable - No Password
Direct Download

Tags: Stewart, Foolish, Behaviour

Rod Stewart - Foolish Behaviour (1980) Download via Hotfile Rapidshare Fileserve Megaupload & FileSonic, Rod Stewart - Foolish Behaviour (1980) free torrent downloads included crack, serial, keygen.Rod Stewart - Foolish Behaviour (1980) Fast Download via Rapidshare Hotfile Fileserve Filesonic Megaupload, Rod Stewart - Foolish Behaviour (1980) Torrents and Emule Download or anything related.
Leave a Comment
Your Name:
E-Mail:
Add Comments:

Enter Code: