Third World - Rock The World (1981)

Download Now

Third World - Rock The World (1981)

Third World - Rock The World (1981)
EAC Rip | FLAC (Tracks) +CUE, LOG | 341 MB | Covers Included
Reggae | Label: Columbia Records | Catalog Number: CK 37402

"One of Third World's best albums, Rock The World was also one of the reggae band's better efforts at bringing reggae into the mainstream. Upbeat cuts like "Dancing on the Floor (Hooked on Love)," "Spritual Revolution," "With a Little Bit of Love," and the instrumental "Hug It Up" are nicely balanced by the mellow "There's No Need to Question Why" and the peppy "Shine Like a Blazing Fire.""

Exact Audio Copy V1.0 beta 3 from 29. August 2011

EAC extraction logfile from 26. August 2015, 0:31

Third World / Rock The World

Used drive : GENERIC CDRCB05 Adapter: 4 ID: 0

Read mode : Secure
Utilize accurate stream : Yes
Defeat audio cache : Yes
Make use of C2 pointers : No

Read offset correction

: 102
Overread into Lead-In and Lead-Out : No
Fill up missing offset samples with silence : Yes
Delete leading and trailing silent blocks : No
Null samples used in CRC calculations : Yes
Used interface
: Native Win32 interface for Win NT & 2000
Gap handling
: Appended to previous track

Used output format : User Defined Encoder
Selected bitrate : 1024 kBit/s
Quality : High
Add ID3 tag : No
Command line compressor : C:\Program Files\FLAC\flac.exe
Additional command line options : -8 -V -T "ARTIST=%artist%" -T "TITLE=%title%" -T "ALBUM=%albumtitle%" -T "DATE=%year%" -T "TRACKNUMBER=%tracknr%" -T "GENRE=%genre%" -T "PERFORMER=%albuminterpret%" -T "COMPOSER=%composer%" %haslyrics%--tag-from-file=LYRICS="%lyricsfile%"%haslyrics% -T "ALBUMARTIST=%albumartist%" -T "DISCNUMBER=%cdnumber%" -T "TOTALDISCS=%totalcds%" -T "TOTALTRACKS=%numtracks%" -T "COMMENT=%comment%" %source% -o %dest%

TOC of the extracted CD Track | Start | Length | Start sector | End sector
--1 | 0:00.00 | 3:46.30 | 0 | 16979 2 | 3:46.30 | 5:12.47 | 16980 | 40426 3 | 8:59.02 | 4:27.58 | 40427 | 60509 4 | 13:26.60 | 3:37.40 | 60510 | 76824 5 | 17:04.25 | 3:48.52 | 76825 | 93976 6 | 20:53.02 | 5:35.63 | 93977 | 119164 7 | 26:28.65 | 3:47.55 | 119165 | 136244 8 | 30:16.45 | 4:15.22 | 136245 | 155391 9 | 34:31.67 | 3:10.23 | 155392 | 169664
10 | 37:42.15 | 4:45.37 | 169665 | 191076

Track 1 Filename G:\POSTS\Third World - Rock The World (1981)\01 - Rock The World.wav Pre-gap length 0:00:02.00 Peak level 87.0 %
Extraction speed 1.2 X
Track quality 99.9 %
Test CRC 146FAAC8
Copy CRC 146FAAC8
Accurately ripped (confidence 2) [8CA366EA] (AR v1)
Copy OK

Track 2 Filename G:\POSTS\Third World - Rock The World (1981)\02 - Spiritual Revolution.wav Peak level 87.0 %
Extraction speed 1.6 X
Track quality 100.0 %
Test CRC DBA8FD3D
Copy CRC DBA8FD3D
Accurately ripped (confidence 2) [D6195759] (AR v1)
Copy OK

Track 3 Filename G:\POSTS\Third World - Rock The World (1981)\03 - Who Gave You (Jan Rastafari).wav Peak level 83.1 %
Extraction speed 1.8 X
Track quality 100.0 %
Test CRC 341DA0B4
Copy CRC 341DA0B4
Accurately ripped (confidence 2) [F275F0C0] (AR v1)
Copy OK

Track 4 Filename G:\POSTS\Third World - Rock The World (1981)\04 - Dubb Music.wav Peak level 83.1 %
Extraction speed 1.9 X
Track quality 100.0 %
Test CRC EC5B1613
Copy CRC EC5B1613
Accurately ripped (confidence 2) [CA42CBB1] (AR v1)
Copy OK

Track 5 Filename G:\POSTS\Third World - Rock The World (1981)\05 - Shine Like A Blazing Fire.wav Peak level 83.1 %
Extraction speed 2.0 X
Track quality 100.0 %
Test CRC 1CD0A478
Copy CRC 1CD0A478
Accurately ripped (confidence 2) [2E2DDC57] (AR v1)
Copy OK

Track 6 Filename G:\POSTS\Third World - Rock The World (1981)\06 - Dancing On The Floor (Hooked On Love).wav Peak level 83.1 %
Extraction speed 2.2 X
Track quality 100.0 %
Test CRC C0E8341E
Copy CRC C0E8341E
Accurately ripped (confidence 2) [224576A4] (AR v1)
Copy OK

Track 7 Filename G:\POSTS\Third World - Rock The World (1981)\07 - There's No Need To Question Why.wav Peak level 79.4 %
Extraction speed 1.8 X
Track quality 99.9 %
Test CRC CB16DEE0
Copy CRC CB16DEE0
Accurately ripped (confidence 2) [1B457D5A] (AR v1)
Copy OK

Track 8 Filename G:\POSTS\Third World - Rock The World (1981)\08 - Peace And Love.wav Peak level 87.1 %
Extraction speed 1.8 X
Track quality 99.9 %
Test CRC 220BE15A
Copy CRC 220BE15A
Accurately ripped (confidence 2) [1E5C59BA] (AR v1)
Copy OK

Track 9 Filename G:\POSTS\Third World - Rock The World (1981)\09 - Standing In The Rain.wav Peak level 87.1 %
Extraction speed 1.9 X
Track quality 100.0 %
Test CRC 97793372
Copy CRC 97793372
Accurately ripped (confidence 2) [1DF2F325] (AR v1)
Copy OK

Track 10 Filename G:\POSTS\Third World - Rock The World (1981)\10 - Hug It Up.wav Peak level 82.7 %
Extraction speed 2.6 X
Track quality 100.0 %
Test CRC 319C9E43
Copy CRC 319C9E43
Accurately ripped (confidence 2) [7E089D32] (AR v1)
Copy OK

All tracks accurately ripped

No errors occurred

End of status report

==== Log checksum 6D717F5CAB645C13A75263786DB558E30C77E11EFA4C6ACD652FDE7A9A4BF363 ====

Tracklist:
01. Rock the World
02. Spiritual Revolution
03. Who Gave You (Jah Rastafari)
04. Dubb Music
05. Shine Like a Blazing Fire
06. Dancing On the Floor (Hooked On Love)
07. There's No Need to Question Why
08. Peace And Love
09. Standing In the Rain
10. Hug It Up
DOWNLOAD:
Buy Premium To Support Me & Get Resumable Support & Max Speed


Links are Interchangeable - No Password
Direct Download

Third World - Rock The World (1981) Download via Hotfile Rapidshare Fileserve Megaupload & FileSonic, Third World - Rock The World (1981) free torrent downloads included crack, serial, keygen.Third World - Rock The World (1981) Fast Download via Rapidshare Hotfile Fileserve Filesonic Megaupload, Third World - Rock The World (1981) Torrents and Emule Download or anything related.
Leave a Comment
Your Name:
E-Mail:
Add Comments:

Enter Code: