Dudamel - Adams: Gospel According to the Other Mary (2014)

Download Now

Dudamel - Adams: Gospel According to the Other Mary (2014)

Dudamel - Adams: Gospel According to the Other Mary (2014)
EAC Rip | Flac (Tracks + cue + log) | 563 MB | MP3 320Kbps CBR | 308 MB | 2 CDs | Full Scans
Genre: Classical | Label: Deutsche Grammophon | Catalog Number: 002003402

"A timely, controversial work of grand proportions, The Gospel According To The Other Mary is a new, full-scale reimagining of the Bach oratorio from composer John Adams and iconoclast writer/director Peter Sellars. Adams and Sellars' previous collaborations included Nixon In China, the most-performed American opera since Gershwin's Porgy and Bess, and Dr. Atomic, an opera about the invention of the atomic bomb."

Focusing on the often marginalised perspectives of Mary Magdalene and Martha, ‘The Gospel According To The Other Mary' sets Biblical characters and events, including the resurrection of Lazarus and the passion of Christ, in a powerfully political, contemporary light.

As with the nativity oratorio El Niño (a response to Handel's Messiah), and the opera Dr. Atomic, the libretto hsd been assembled by Peter Sellars, who has interwoven events from the New and Old Testaments with poetry reflecting themes of faith and liberation from the 12th Century mystic Hildegard von Bingen, to the 20th Century Mexican feminist poet Rosario Castellanos.

This World Premiere recording, featuring the original cast, was made in Disney Hall, Los Angeles, at performances staged by Peter Sellars - with soloists, the Los Angeles Master Chorale and the Los Angeles Philharmonic conducted by Gustavo Dudamel.

A champion of contemporary music and social engagement through art, Gustavo Dudamel commissioned ‘The Gospel...', together with the LA Phil, as part of a long-standing creative relationship with John Adams.

This important DG release marks the 5th Anniversary of Gustavo Dudamel's appointment as Music Director of the Los Angeles Philharmonic and the 10th Anniversary of the LA Phil's home, Walt Disney Concert Hall.

Composer: John Adams
Performer: Nathan Medley, Daniel Bubeck, Brian Cummings, Kelley O'Connor, ...
Conductor: Gustavo Dudamel
Orchestra/Ensemble: Los Angeles Master Chorale, Los Angeles Philharmonic Orchestra

"Reviews: You have no time to settle in and get comfortable. From the very opening seconds, beginning with emphatic orchestral chords, quickly followed by the "shrieks of a woman in drug withdrawal" in a jail cell, you're pulled immediately into what proves to be a very intense drama-or series of dramatic scenes-that really doesn't let up for this work's entire 133 minutes. I suppose in some way it could have been an opera-except that there's no actual Description or dialogue-rather there are episodes and utterances, described and expressed either by a chorus, a group of countertenors, or an individual character-Mary Magdalene, Martha, Lazarus. Peter Sellars chose texts from the Old and New Testaments, and from works by Dorothy Day, Louise Erdrich, Primo Levi, Rosario Castellanos, June Jordan, Hildegard von Bingen, and Rubén Dario.

John Adams' music is gripping, charged with a relentless energy that had me thinking a lot of Stravinsky-both of the Rite's rawness and violence and of the quirky, characterful rhythms of Les Noces. I wouldn't call this a "passion oratorio"-you can't really follow the passion story in the traditional sense; there are too many interruptions and imaginings (such as the totally made up idea that Mary and her sister Martha are running a home for homeless and unemployed women).

I really like the inclusion of the Lazarus scenes for their foreshadowing of Christ's own death and resurrection and for the touching and telling portrayals of the women who are so central to this drama, and the addition of this material, along with the vivid accounts by Dorothy Day of violence, arrests, and mistreatment related to United Farm Workers demonstrations do have a direct connection to Bach's incorporation of non-Biblical poetic texts in his oratorios. But there's a different agenda here that takes this subject into distinctly modern territory and imposes a political message that's completely aside from the baroque passion-oratorio model. Not that there's anything wrong with that. Adams and Sellars have ingeniously transformed and made relevant-and maybe even a little controversial-an old, traditional, justifiably revered, and decidedly uncontroversial musical/theatrical genre. And when you hear it, you can easily understand why reviews of the concert performances tended to be so excited and positive. This is very exciting music that keeps the listener in mind-that is, Adams doesn't seem to forget that to keep people in their seats you have to give them something not only listenable, but sensible, from a story-telling standpoint.

And of course, you need a cast of singers and an ensemble of instrumentalists who can bring it all home. There's not really a weak link here in that regard, and my only complaint, the only place where this impressive music drama falters, is during the couple of extended Lazarus arias, which, devoid of tunes, just come off as torturous, wounded, strained utterances that go on and on until you just want them to stop. You can't just write endless, meandering lines and expect listeners to follow happily into a thorny thicket of anguish without a reward-especially when you can't understand anything the singer is saying. I fast-forwarded through these sections.

There's one other thing: the title. Sellars and Adams obviously intend their reference to "the other Mary" to mean Mary Magdalene. However, this is at odds with actual Biblical citations. Six Marys are mentioned in the New Testament, and among them Mary the mother of Jesus and Mary Magdalene are always clearly identified. In the book of Matthew there are several references to Mary Magdalene and "the other Mary". This "other Mary" happens to be the mother of James, a sister of Mary the mother of Jesus. Those familiar with these well-known Biblical references will just have to accept that either Adams and Sellars chose to ignore them for some artistic purpose or were truly ignorant of them.

None of this takes away from the powerful musical/dramatic show these seasoned collaborators-plus their talented cohort Gustavo Dudamel and his choral and orchestral forces-bring to bear. It's a grand work that, well, really rocks. And I'm sure that its greatest benefits would be realized by seeing it performed live. You can sense the potential on these CDs, but you suspect that what's been created is much bigger than can be contained in your home sound system."


Tracklisting:

CD 1: Adams: The Gospel According To The Other Mary

John Adams (1947 - )
The Gospel According To The Other Mary
The Gospel According to the Other Mary
Act 1
Scene 1 - Jail / House Of Hospitality
1. "The Next Day In The City Jail" 4:09
Kelley O'Connor, Los Angeles Master Chorale, Los Angeles Philharmonic, Gustavo Dudamel
2. "Now A Certain Woman Named Martha" 2:44
Scene 2 - Mary
3. "And She Had A Sister Named Mary" 1:41
Brian Cummings, Daniel Bubeck, Nathan Medley, Tamara Mumford, Los Angeles Philharmonic, Gustavo Dudamel
4. "I Am Surprised That I Am Beginning To Pray Daily" 3:26
Kelley O'Connor, Los Angeles Philharmonic, Gustavo Dudamel
5. "En un día de amor yo bajé hasta la tierra" 4:17
Los Angeles Master Chorale, Los Angeles Philharmonic, Gustavo Dudamel
Scene 3 - Lazarus
6. "Now A Certain Man Was Sick" 4:01
Brian Cummings, Daniel Bubeck, Nathan Medley, Los Angeles Philharmonic, Gustavo Dudamel
7. Lazarus Dies While The Sisters Await Jesus 2:04
Los Angeles Philharmonic, Gustavo Dudamel
8. "Why Standest Thou Afar Off, O Lord?" 2:27
Tamara Mumford, Brian Cummings, Daniel Bubeck, Nathan Medley, Los Angeles Philharmonic, Gustavo Dudamel
9. "In My Own Quietly Explosive Here" 2:49
Kelley O'Connor, Tamara Mumford, Brian Cummings, Daniel Bubeck, Nathan Medley, Los Angeles Philharmonic, Gustavo Dudamel
10. "Don't Touch My Left Arm" 1:53
Kelley O'Connor, Los Angeles Philharmonic, Gustavo Dudamel
11. "When Mary Was Come Where Jesus Was" 3:42
Brian Cummings, Daniel Bubeck, Nathan Medley, Kelley O'Connor, Los Angeles Philharmonic, Gustavo Dudamel
12. "Jesus Said, Take Ye Away The Stone" 1:52
Brian Cummings, Daniel Bubeck, Nathan Medley, Los Angeles Master Chorale, Los Angeles Philharmonic, Gustavo Dudamel
13. "And When He Thus Had Spoken" 4:19
Brian Cummings, Daniel Bubeck, Nathan Medley, Los Angeles Philharmonic, Gustavo Dudamel
14. "Drop Down, Ye Heavens, From Above" 3:08
Los Angeles Master Chorale, Los Angeles Philharmonic, Gustavo Dudamel
Scene 4 - Supper At Bethany
15. "Then Jesus Six Days Before The Passover" 0:43
Brian Cummings, Daniel Bubeck, Nathan Medley, Los Angeles Philharmonic, Gustavo Dudamel
16. "For The Grave Cannot Praise Thee" 6:39
Russell Thomas, Los Angeles Philharmonic, Gustavo Dudamel
17. "Then Took Mary A Pound Of Ointment" 4:46
Brian Cummings, Daniel Bubeck, Nathan Medley, Kelley O'Connor, Los Angeles Master Chorale, Los Angeles Philharmonic, Gustavo Dudamel
Scene 5 - Passover
18. "And There Were Some That Had Indignation" 1:40
Russell Thomas, Brian Cummings, Daniel Bubeck, Nathan Medley, Los Angeles Philharmonic, Gustavo Dudamel
19. "We Know There Will Be No Utopias" 5:20
Tamara Mumford, Brian Cummings, Daniel Bubeck, Nathan Medley, Los Angeles Philharmonic, Gustavo Dudamel
20. "Tell Me: How Is This Night Different" 9:29
Russell Thomas, Los Angeles Philharmonic, Gustavo Dudamel
Total Playing Time 1:11:09

X Lossless Decoder version 20130720 (144.0)

XLD extraction logfile from 2014-03-24 12:55:29 -0400

Kelley O'Connor, Tamara Mumford, Etc.; Gustavo Dudamel: Los Angeles Philharmonic Orchestra, Los Angeles Master Chorale / Adams: The Gospel According To The Other Mary

Used drive : MATSHITA DVD-R UJ-8A8 (revision HA13)
Media type : Pressed CD

Ripper mode : XLD Secure Ripper
Disable audio cache : OK for the drive with a cache less than 1375KiB
Make use of C2 pointers : NO
Read offset correction : 102
Max retry count : 20
Gap status : Analyzed, Appended (except HTOA)

TOC of the extracted CD
Track | Start | Length | Start sector | End sector
--1 | 00:00:00 | 04:09:22 | 0 | 18696 2 | 04:09:22 | 02:44:24 | 18697 | 31020 3 | 06:53:46 | 01:40:69 | 31021 | 38589 4 | 08:34:40 | 03:25:73 | 38590 | 54037 5 | 12:00:38 | 04:16:38 | 54038 | 73275 6 | 16:17:01 | 04:00:69 | 73276 | 91344 7 | 20:17:70 | 02:03:54 | 91345 | 100623 8 | 22:21:49 | 02:26:60 | 100624 | 111633 9 | 24:48:34 | 02:49:34 | 111634 | 124342
10 | 27:37:68 | 01:53:02 | 124343 | 132819
11 | 29:30:70 | 03:42:26 | 132820 | 149495
12 | 33:13:21 | 01:52:19 | 149496 | 157914
13 | 35:05:40 | 04:19:26 | 157915 | 177365
14 | 39:24:66 | 03:07:71 | 177366 | 191461
15 | 42:32:62 | 00:42:52 | 191462 | 194663
16 | 43:15:39 | 06:38:66 | 194664 | 224579
17 | 49:54:30 | 04:46:29 | 224580 | 246058
18 | 54:40:59 | 01:40:26 | 246059 | 253584
19 | 56:21:10 | 05:19:52 | 253585 | 277561
20 | 61:40:62 | 09:29:30 | 277562 | 320266

AccurateRip Summary
Disc not found in AccurateRip DB.

All Tracks
Album gain : 3.61 dB
Peak : 0.966675
StatisticsRead error : 0Jitter error (maybe fixed) : 0Retry sector count : 0Damaged sector count : 0

Track 01
Filename : /Users/julioflores/Music/Max Ripper/Kelley O'Connor, Tamara Mumford, Etc.; Gustavo Dudamel: Los Angeles Philharmonic Orchestra, Los Angeles Master Chorale - Adams: The Gospel According To The Other Mary (2014) [FLAC]/01 Adams: The Gospel According To The Other Mary - Act 1: The Next Day In The City Jail.flac
Pre-gap length : 00:02:00 Track gain : 0.88 dB
Peak : 0.717834
CRC32 hash (test run) : 83B84941
CRC32 hash : 83B84941
CRC32 hash (skip zero) : 6A483E38
AccurateRip v1 signature : D98FDB24
AccurateRip v2 signature : 18BEFE5D->Track not present in AccurateRip database.
StatisticsRead error : 0Jitter error (maybe fixed) : 0Retry sector count : 0Damaged sector count : 0

Track 02
Filename : /Users/julioflores/Music/Max Ripper/Kelley O'Connor, Tamara Mumford, Etc.; Gustavo Dudamel: Los Angeles Philharmonic Orchestra, Los Angeles Master Chorale - Adams: The Gospel According To The Other Mary (2014) [FLAC]/02 Adams: The Gospel According To The Other Mary - Act 1: Now A Certain Woman Named Martha.flac Track gain : 11.53 dB
Peak : 0.255005
CRC32 hash (test run) : C2A3DF2E
CRC32 hash : C2A3DF2E
CRC32 hash (skip zero) : 49134CC6
AccurateRip v1 signature : A581BC68
AccurateRip v2 signature : 80BCB806->Track not present in AccurateRip database.
StatisticsRead error : 0Jitter error (maybe fixed) : 0Retry sector count : 0Damaged sector count : 0

Track 03
Filename : /Users/julioflores/Music/Max Ripper/Kelley O'Connor, Tamara Mumford, Etc.; Gustavo Dudamel: Los Angeles Philharmonic Orchestra, Los Angeles Master Chorale - Adams: The Gospel According To The Other Mary (2014) [FLAC]/03 Adams: The Gospel According To The Other Mary - Act 1: And She Had A Sister Named Mary.flac Track gain : 10.81 dB
Peak : 0.212097
CRC32 hash (test run) : 1C5354EE
CRC32 hash : 1C5354EE
CRC32 hash (skip zero) : 9ADF33F3
AccurateRip v1 signature : 65556523
AccurateRip v2 signature : 9D49751F->Track not present in AccurateRip database.
StatisticsRead error : 0Jitter error (maybe fixed) : 0Retry sector count : 0Damaged sector count : 0

Track 04
Filename : /Users/julioflores/Music/Max Ripper/Kelley O'Connor, Tamara Mumford, Etc.; Gustavo Dudamel: Los Angeles Philharmonic Orchestra, Los Angeles Master Chorale - Adams: The Gospel According To The Other Mary (2014) [FLAC]/04 Adams: The Gospel According To The Other Mary - Act 1: I Am Surprised That I Am Beginning To Pray Daily.flac Track gain : 9.79 dB
Peak : 0.230133
CRC32 hash (test run) : 6D5C2571
CRC32 hash : 6D5C2571
CRC32 hash (skip zero) : 62E013D5
AccurateRip v1 signature : 866A5242
AccurateRip v2 signature : D451ED43->Track not present in AccurateRip database.
StatisticsRead error : 0Jitter error (maybe fixed) : 0Retry sector count : 0Damaged sector count : 0

Track 05
Filename : /Users/julioflores/Music/Max Ripper/Kelley O'Connor, Tamara Mumford, Etc.; Gustavo Dudamel: Los Angeles Philharmonic Orchestra, Los Angeles Master Chorale - Adams: The Gospel According To The Other Mary (2014) [FLAC]/05 Adams: The Gospel According To The Other Mary - Act 1: En Un Dia De Amor Yo Bajé Hasta La Tierra.flac Track gain : 6.91 dB
Peak : 0.532196
CRC32 hash (test run) : F87F187F
CRC32 hash : F87F187F
CRC32 hash (skip zero) : DCCF3FC2
AccurateRip v1 signature : 903C88C6
AccurateRip v2 signature : C3BC0B7E->Track not present in AccurateRip database.
StatisticsRead error : 0Jitter error (maybe fixed) : 0Retry sector count : 0Damaged sector count : 0

Track 06
Filename : /Users/julioflores/Music/Max Ripper/Kelley O'Connor, Tamara Mumford, Etc.; Gustavo Dudamel: Los Angeles Philharmonic Orchestra, Los Angeles Master Chorale - Adams: The Gospel According To The Other Mary (2014) [FLAC]/06 Adams: The Gospel According To The Other Mary - Act 1: Now A Certain Main Was Sick.flac Track gain : 9.15 dB
Peak : 0.293427
CRC32 hash (test run) : 8E7C544E
CRC32 hash : 8E7C544E
CRC32 hash (skip zero) : 6435059C
AccurateRip v1 signature : EAD31E57
AccurateRip v2 signature : 7C4828E8->Track not present in AccurateRip database.
StatisticsRead error : 0Jitter error (maybe fixed) : 0Retry sector count : 0Damaged sector count : 0

Track 07
Filename : /Users/julioflores/Music/Max Ripper/Kelley O'Connor, Tamara Mumford, Etc.; Gustavo Dudamel: Los Angeles Philharmonic Orchestra, Los Angeles Master Chorale - Adams: The Gospel According To The Other Mary (2014) [FLAC]/07 Adams: The Gospel According To The Other Mary - Act 1: Lazarus Dies While The Sisters Await Jesus.flac Track gain : 10.79 dB
Peak : 0.283325
CRC32 hash (test run) : 76268C80
CRC32 hash : 76268C80
CRC32 hash (skip zero) : 9CE8937D
AccurateRip v1 signature : 54900DE6
AccurateRip v2 signature : 4E7499DD->Track not present in AccurateRip database.
StatisticsRead error : 0Jitter error (maybe fixed) : 0Retry sector count : 0Damaged sector count : 0

Track 08
Filename : /Users/julioflores/Music/Max Ripper/Kelley O'Connor, Tamara Mumford, Etc.; Gustavo Dudamel: Los Angeles Philharmonic Orchestra, Los Angeles Master Chorale - Adams: The Gospel According To The Other Mary (2014) [FLAC]/08 Adams: The Gospel According To The Other Mary - Act 1: Why Standest Thou Afar Off, O Lord?.flac Track gain : 8.80 dB
Peak : 0.306335
CRC32 hash (test run) : 1B64DEB4
CRC32 hash : 1B64DEB4
CRC32 hash (skip zero) : 56A1E72A
AccurateRip v1 signature : 7F933791
AccurateRip v2 signature : 4541E79B->Track not present in AccurateRip database.
StatisticsRead error : 0Jitter error (maybe fixed) : 0Retry sector count : 0Damaged sector count : 0

Track 09
Filename : /Users/julioflores/Music/Max Ripper/Kelley O'Connor, Tamara Mumford, Etc.; Gustavo Dudamel: Los Angeles Philharmonic Orchestra, Los Angeles Master Chorale - Adams: The Gospel According To The Other Mary (2014) [FLAC]/09 Adams: The Gospel According To The Other Mary - Act 1: In My Own Quietly Explosive Here.flac Track gain : 5.01 dB
Peak : 0.512024
CRC32 hash (test run) : 382CEBBD
CRC32 hash : 382CEBBD
CRC32 hash (skip zero) : 915218C7
AccurateRip v1 signature : 8175D4DA
AccurateRip v2 signature : EDD79417->Track not present in AccurateRip database.
StatisticsRead error : 0Jitter error (maybe fixed) : 0Retry sector count : 0Damaged sector count : 0

Track 10
Filename : /Users/julioflores/Music/Max Ripper/Kelley O'Connor, Tamara Mumford, Etc.; Gustavo Dudamel: Los Angeles Philharmonic Orchestra, Los Angeles Master Chorale - Adams: The Gospel According To The Other Mary (2014) [FLAC]/10 Adams: The Gospel According To The Other Mary - Act 1: Don't Touch My Left Arm.flac Track gain : 4.36 dB
Peak : 0.360840
CRC32 hash (test run) : 69AB1E48
CRC32 hash : 69AB1E48
CRC32 hash (skip zero) : 065F7905
AccurateRip v1 signature : E830A55D
AccurateRip v2 signature : 4C06AF87->Track not present in AccurateRip database.
StatisticsRead error : 0Jitter error (maybe fixed) : 0Retry sector count : 0Damaged sector count : 0

Track 11
Filename : /Users/julioflores/Music/Max Ripper/Kelley O'Connor, Tamara Mumford, Etc.; Gustavo Dudamel: Los Angeles Philharmonic Orchestra, Los Angeles Master Chorale - Adams: The Gospel According To The Other Mary (2014) [FLAC]/11 Adams: The Gospel According To The Other Mary - Act 1: When Mary Was Come Where Jesus Was.flac Track gain : 7.79 dB
Peak : 0.348297
CRC32 hash (test run) : 77FE5C2E
CRC32 hash : 77FE5C2E
CRC32 hash (skip zero) : F7B49F6C
AccurateRip v1 signature : 23CD1E28
AccurateRip v2 signature : A5046E74->Track not present in AccurateRip database.
StatisticsRead error : 0Jitter error (maybe fixed) : 0Retry sector count : 0Damaged sector count : 0

Track 12
Filename : /Users/julioflores/Music/Max Ripper/Kelley O'Connor, Tamara Mumford, Etc.; Gustavo Dudamel: Los Angeles Philharmonic Orchestra, Los Angeles Master Chorale - Adams: The Gospel According To The Other Mary (2014) [FLAC]/12 Adams: The Gospel According To The Other Mary - Act 1: Jesus Said, Take Ye Away The Stone.flac Track gain : 3.65 dB
Peak : 0.704407
CRC32 hash (test run) : 0B2146B7
CRC32 hash : 0B2146B7
CRC32 hash (skip zero) : 916FF2D2
AccurateRip v1 signature : B95A52D2
AccurateRip v2 signature : 75781237->Track not present in AccurateRip database.
StatisticsRead error : 0Jitter error (maybe fixed) : 0Retry sector count : 0Damaged sector count : 0

Track 13
Filename : /Users/julioflores/Music/Max Ripper/Kelley O'Connor, Tamara Mumford, Etc.; Gustavo Dudamel: Los Angeles Philharmonic Orchestra, Los Angeles Master Chorale - Adams: The Gospel According To The Other Mary (2014) [FLAC]/13 Adams: The Gospel According To The Other Mary - Act 1: And When He Thus Had Spoken.flac Track gain : 6.90 dB
Peak : 0.590637
CRC32 hash (test run) : 380843D9
CRC32 hash : 380843D9
CRC32 hash (skip zero) : 668C98F8
AccurateRip v1 signature : DAE13D29
AccurateRip v2 signature : 852B494A->Track not present in AccurateRip database.
StatisticsRead error : 0Jitter error (maybe fixed) : 0Retry sector count : 0Damaged sector count : 0

Track 14
Filename : /Users/julioflores/Music/Max Ripper/Kelley O'Connor, Tamara Mumford, Etc.; Gustavo Dudamel: Los Angeles Philharmonic Orchestra, Los Angeles Master Chorale - Adams: The Gospel According To The Other Mary (2014) [FLAC]/14 Adams: The Gospel According To The Other Mary - Act 1: Drop Down, Ye Heavens, From Above.flac Track gain : 3.65 dB
Peak : 0.638916
CRC32 hash (test run) : 474BF39A
CRC32 hash : 474BF39A
CRC32 hash (skip zero) : F09632E7
AccurateRip v1 signature : 7E74978D
AccurateRip v2 signature : C7F7FC8D->Track not present in AccurateRip database.
StatisticsRead error : 0Jitter error (maybe fixed) : 0Retry sector count : 0Damaged sector count : 0

Track 15
Filename : /Users/julioflores/Music/Max Ripper/Kelley O'Connor, Tamara Mumford, Etc.; Gustavo Dudamel: Los Angeles Philharmonic Orchestra, Los Angeles Master Chorale - Adams: The Gospel According To The Other Mary (2014) [FLAC]/15 Adams: The Gospel According To The Other Mary - Act 1: Then Jesus Six Days Before The Passover.flac Track gain : 10.19 dB
Peak : 0.227570
CRC32 hash (test run) : 853C1A44
CRC32 hash : 853C1A44
CRC32 hash (skip zero) : 6679F6E1
AccurateRip v1 signature : 34B39F74
AccurateRip v2 signature : B1765C70->Track not present in AccurateRip database.
StatisticsRead error : 0Jitter error (maybe fixed) : 0Retry sector count : 0Damaged sector count : 0

Track 16
Filename : /Users/julioflores/Music/Max Ripper/Kelley O'Connor, Tamara Mumford, Etc.; Gustavo Dudamel: Los Angeles Philharmonic Orchestra, Los Angeles Master Chorale - Adams: The Gospel According To The Other Mary (2014) [FLAC]/16 Adams: The Gospel According To The Other Mary - Act 1: For The Grave Cannot Praise Thee.flac Track gain : 1.91 dB
Peak : 0.618347
CRC32 hash (test run) : 6B651934
CRC32 hash : 6B651934
CRC32 hash (skip zero) : 3726EC62
AccurateRip v1 signature : A3B4F653
AccurateRip v2 signature : 1DDC9EEF->Track not present in AccurateRip database.
StatisticsRead error : 0Jitter error (maybe fixed) : 0Retry sector count : 0Damaged sector count : 0

Track 17
Filename : /Users/julioflores/Music/Max Ripper/Kelley O'Connor, Tamara Mumford, Etc.; Gustavo Dudamel: Los Angeles Philharmonic Orchestra, Los Angeles Master Chorale - Adams: The Gospel According To The Other Mary (2014) [FLAC]/17 Adams: The Gospel According To The Other Mary - Act 1: Then Took Mary A Pound Of Ointment.flac Track gain : -2.67 dB
Peak : 0.966675
CRC32 hash (test run) : 78F17946
CRC32 hash : 78F17946
CRC32 hash (skip zero) : 01E3E531
AccurateRip v1 signature : 314A7F0E
AccurateRip v2 signature : 702FA4B6->Track not present in AccurateRip database.
StatisticsRead error : 0Jitter error (maybe fixed) : 0Retry sector count : 0Damaged sector count : 0

Track 18
Filename : /Users/julioflores/Music/Max Ripper/Kelley O'Connor, Tamara Mumford, Etc.; Gustavo Dudamel: Los Angeles Philharmonic Orchestra, Los Angeles Master Chorale - Adams: The Gospel According To The Other Mary (2014) [FLAC]/18 Adams: The Gospel According To The Other Mary - Act 1: And There Were Some That Had Indignation.flac Track gain : 7.61 dB
Peak : 0.311340
CRC32 hash (test run) : 81E3205E
CRC32 hash : 81E3205E
CRC32 hash (skip zero) : 00AB0212
AccurateRip v1 signature : BCE91EDF
AccurateRip v2 signature : 5160865A->Track not present in AccurateRip database.
StatisticsRead error : 0Jitter error (maybe fixed) : 0Retry sector count : 0Damaged sector count : 0

Track 19
Filename : /Users/julioflores/Music/Max Ripper/Kelley O'Connor, Tamara Mumford, Etc.; Gustavo Dudamel: Los Angeles Philharmonic Orchestra, Los Angeles Master Chorale - Adams: The Gospel According To The Other Mary (2014) [FLAC]/19 Adams: The Gospel According To The Other Mary - Act 1: We Know There Will Be No Utopias.flac Track gain : 8.98 dB
Peak : 0.469147
CRC32 hash (test run) : 60EC49B6
CRC32 hash : 60EC49B6
CRC32 hash (skip zero) : 47233E1D
AccurateRip v1 signature : 0C61FAD3
AccurateRip v2 signature : 5EF8FA54->Track not present in AccurateRip database.
StatisticsRead error : 0Jitter error (maybe fixed) : 0Retry sector count : 0Damaged sector count : 0

Track 20
Filename : /Users/julioflores/Music/Max Ripper/Kelley O'Connor, Tamara Mumford, Etc.; Gustavo Dudamel: Los Angeles Philharmonic Orchestra, Los Angeles Master Chorale - Adams: The Gospel According To The Other Mary (2014) [FLAC]/20 Adams: The Gospel According To The Other Mary - Act 1: Tell Me: How Is This Night Different.flac Track gain : 4.44 dB
Peak : 0.681152
CRC32 hash (test run) : 16A3169E
CRC32 hash : 16A3169E
CRC32 hash (skip zero) : D2EDD98B
AccurateRip v1 signature : 8F1AF3DD
AccurateRip v2 signature : 48274C9B->Track not present in AccurateRip database.
StatisticsRead error : 0Jitter error (maybe fixed) : 0Retry sector count : 0Damaged sector count : 0

No errors occurred

End of status report

--BEGIN XLD SIGNATURE--
lcpEjyV9QY6wMi0Qfhjk4mwnw6K7Xy8QcKhEQxTnXSejK2oFZi3KxYBWmiiLJ1oDg2v74A1.SzY1SkaCmEHvrvqEZhfR8KDXQKXl5Vi
--END XLD SIGNATURE--

CD 2: Adams: The Gospel According To The Other Mary

John Adams (1947 - )
The Gospel According To The Other Mary
The Gospel According to the Other Mary
Act 2
1. "Who Rips His Own Flesh Down The Seams" 3:49
Los Angeles Master Chorale, Los Angeles Philharmonic, Gustavo Dudamel
Scene 1 - Police Raid
2. "Martha And Mary, Not Knowing" 5:40
Brian Cummings, Daniel Bubeck, Nathan Medley, Russell Thomas, Los Angeles Master Chorale, Los Angeles Philharmonic, Gustavo Dudamel
Scene 2 - Arrest Of The Women
3. Instrumental Introduction 2:26
Los Angeles Philharmonic, Gustavo Dudamel
4. "Up At Two A.M., Picketed All Day" 1:29
Tamara Mumford, Los Angeles Philharmonic, Gustavo Dudamel
5. "The Said Defendants" 2:54
Tamara Mumford, Los Angeles Master Chorale, Los Angeles Philharmonic, Gustavo Dudamel
6. "Jesús, incomparable perdonador de injurias" 3:02
Los Angeles Master Chorale, Los Angeles Philharmonic, Gustavo Dudamel
Scene 3 - Golgotha
7. "And They Were Come Unto A Place Called Golgotha" 6:14
Brian Cummings, Daniel Bubeck, Nathan Medley, Kelley O'Connor, Los Angeles Philharmonic, Gustavo Dudamel
8. "Daughters Of Jerusalem, Weep Not For Me" 3:03
Los Angeles Master Chorale, Los Angeles Philharmonic, Gustavo Dudamel
9. "Now There Stood By The Cross Of Jesus" 1:27
Tamara Mumford, Brian Cummings, Daniel Bubeck, Nathan Medley, Los Angeles Philharmonic, Gustavo Dudamel
10. "When Jesus Saw His Mother" 2:13
Brian Cummings, Daniel Bubeck, Nathan Medley, Los Angeles Philharmonic, Gustavo Dudamel
Scene 4 - Night
11. "When The Rain Began To Fall" 7:35
Kelley O'Connor, Los Angeles Philharmonic, Gustavo Dudamel
12. "His Son Cried Out To Him" 1:32
Russell Thomas, Los Angeles Philharmonic, Gustavo Dudamel
Scene 5 - Burial / Spring
13. "Now In The Place Where He Was Crucified" 4:35
Brian Cummings, Daniel Bubeck, Nathan Medley, Gustavo Dudamel, Los Angeles Philharmonic
14. Mary Awakens On The Third Morning 2:08
Los Angeles Philharmonic, Gustavo Dudamel
15. "It Is Spring" 4:02
Kelley O'Connor, Los Angeles Master Chorale, Los Angeles Philharmonic, Gustavo Dudamel
Scene 6 - Earthquake And Recognition
16. "And, Behold, There Was A Great Earthquake" 3:18
17. "Why Seek Ye The Living Among The Dead?" 6:25
Kelley O'Connor, Tamara Mumford, Russell Thomas, Brian Cummings, Daniel Bubeck, Nathan Medley, Los Angeles Master Chorale, Los Angeles Philharmonic, Gustavo Dudamel
Total Playing Time 1:01:52

X Lossless Decoder version 20130720 (144.0)

XLD extraction logfile from 2014-03-24 13:17:59 -0400

Kelley O'Connor, Tamara Mumford, Etc.; Gustavo Dudamel: Los Angeles Philharmonic Orchestra, Los Angeles Master Chorale / Adams: The Gospel According To The Other Mary

Used drive : MATSHITA DVD-R UJ-8A8 (revision HA13)
Media type : Pressed CD

Ripper mode : XLD Secure Ripper
Disable audio cache : OK for the drive with a cache less than 1375KiB
Make use of C2 pointers : NO
Read offset correction : 102
Max retry count : 20
Gap status : Analyzed, Appended (except HTOA)

TOC of the extracted CD
Track | Start | Length | Start sector | End sector
--1 | 00:00:00 | 03:49:26 | 0 | 17200 2 | 03:49:26 | 05:40:34 | 17201 | 42734 3 | 09:29:60 | 02:25:48 | 42735 | 53657 4 | 11:55:33 | 01:29:16 | 53658 | 60348 5 | 13:24:49 | 02:54:36 | 60349 | 73434 6 | 16:19:10 | 03:01:41 | 73435 | 87050 7 | 19:20:51 | 06:14:16 | 87051 | 115116 8 | 25:34:67 | 03:03:27 | 115117 | 128868 9 | 28:38:19 | 01:27:00 | 128869 | 135393
10 | 30:05:19 | 02:12:72 | 135394 | 145365
11 | 32:18:16 | 07:35:24 | 145366 | 179514
12 | 39:53:40 | 01:32:09 | 179515 | 186423
13 | 41:25:49 | 04:34:64 | 186424 | 207037
14 | 46:00:38 | 02:08:23 | 207038 | 216660
15 | 48:08:61 | 04:01:49 | 216661 | 234784
16 | 52:10:35 | 03:17:49 | 234785 | 249608
17 | 55:28:09 | 06:25:01 | 249609 | 278484

AccurateRip Summary
Disc not found in AccurateRip DB.

All Tracks
Album gain : 0.43 dB
Peak : 0.974457
StatisticsRead error : 0Jitter error (maybe fixed) : 0Retry sector count : 0Damaged sector count : 0

Track 01
Filename : /Users/julioflores/Music/Max Ripper/Kelley O'Connor, Tamara Mumford, Etc.; Gustavo Dudamel: Los Angeles Philharmonic Orchestra, Los Angeles Master Chorale - Adams: The Gospel According To The Other Mary (2014) [FLAC]/01 Adams: The Gospel According To The Other Mary - Act 2: Who Rips His Flesh Down The Seams.flac
Pre-gap length : 00:02:00 Track gain : -2.91 dB
Peak : 0.966522
CRC32 hash (test run) : 7DBC14D6
CRC32 hash : 7DBC14D6
CRC32 hash (skip zero) : 325751C2
AccurateRip v1 signature : 278321B7
AccurateRip v2 signature : D0663BDA->Track not present in AccurateRip database.
StatisticsRead error : 0Jitter error (maybe fixed) : 0Retry sector count : 0Damaged sector count : 0

Track 02
Filename : /Users/julioflores/Music/Max Ripper/Kelley O'Connor, Tamara Mumford, Etc.; Gustavo Dudamel: Los Angeles Philharmonic Orchestra, Los Angeles Master Chorale - Adams: The Gospel According To The Other Mary (2014) [FLAC]/02 Adams: The Gospel According To The Other Mary - Act 2: Arrest Of Jesus.flac Track gain : 2.16 dB
Peak : 0.636078
CRC32 hash (test run) : BD7B1750
CRC32 hash : BD7B1750
CRC32 hash (skip zero) : 2943A26F
AccurateRip v1 signature : 046B6856
AccurateRip v2 signature : E75C2D0D->Track not present in AccurateRip database.
StatisticsRead error : 0Jitter error (maybe fixed) : 0Retry sector count : 0Damaged sector count : 0

Track 03
Filename : /Users/julioflores/Music/Max Ripper/Kelley O'Connor, Tamara Mumford, Etc.; Gustavo Dudamel: Los Angeles Philharmonic Orchestra, Los Angeles Master Chorale - Adams: The Gospel According To The Other Mary (2014) [FLAC]/03 Adams: The Gospel According To The Other Mary - Act 2: Arrest Of The Women.flac Track gain : 0.39 dB
Peak : 0.786377
CRC32 hash (test run) : 4576EDBE
CRC32 hash : 4576EDBE
CRC32 hash (skip zero) : 1D6D6590
AccurateRip v1 signature : 3D9B97B8
AccurateRip v2 signature : 825C267D->Track not present in AccurateRip database.
StatisticsRead error : 0Jitter error (maybe fixed) : 0Retry sector count : 0Damaged sector count : 0

Track 04
Filename : /Users/julioflores/Music/Max Ripper/Kelley O'Connor, Tamara Mumford, Etc.; Gustavo Dudamel: Los Angeles Philharmonic Orchestra, Los Angeles Master Chorale - Adams: The Gospel According To The Other Mary (2014) [FLAC]/04 Adams: The Gospel According To The Other Mary - Act 2: Up At 2 A. M., Picketed All Day....flac Track gain : 8.82 dB
Peak : 0.306213
CRC32 hash (test run) : 4B32DB9A
CRC32 hash : 4B32DB9A
CRC32 hash (skip zero) : 80987C32
AccurateRip v1 signature : 61D8E459
AccurateRip v2 signature : 217D98B9->Track not present in AccurateRip database.
StatisticsRead error : 0Jitter error (maybe fixed) : 0Retry sector count : 0Damaged sector count : 0

Track 05
Filename : /Users/julioflores/Music/Max Ripper/Kelley O'Connor, Tamara Mumford, Etc.; Gustavo Dudamel: Los Angeles Philharmonic Orchestra, Los Angeles Master Chorale - Adams: The Gospel According To The Other Mary (2014) [FLAC]/05 Adams: The Gospel According To The Other Mary - Act 2: The Said Defendants, On Or About August The 2nd.flac Track gain : -0.97 dB
Peak : 0.966309
CRC32 hash (test run) : E387C711
CRC32 hash : E387C711
CRC32 hash (skip zero) : F57D62A3
AccurateRip v1 signature : C580ACF2
AccurateRip v2 signature : BC1C9F38->Track not present in AccurateRip database.
StatisticsRead error : 0Jitter error (maybe fixed) : 0Retry sector count : 0Damaged sector count : 0

Track 06
Filename : /Users/julioflores/Music/Max Ripper/Kelley O'Connor, Tamara Mumford, Etc.; Gustavo Dudamel: Los Angeles Philharmonic Orchestra, Los Angeles Master Chorale - Adams: The Gospel According To The Other Mary (2014) [FLAC]/06 Adams: The Gospel According To The Other Mary - Act 2: Prayer Of The Mexican Women.flac Track gain : 4.03 dB
Peak : 0.638153
CRC32 hash (test run) : B90B0106
CRC32 hash : B90B0106
CRC32 hash (skip zero) : BC98A98B
AccurateRip v1 signature : D711CB9B
AccurateRip v2 signature : 2C0239A9->Track not present in AccurateRip database.
StatisticsRead error : 0Jitter error (maybe fixed) : 0Retry sector count : 0Damaged sector count : 0

Track 07
Filename : /Users/julioflores/Music/Max Ripper/Kelley O'Connor, Tamara Mumford, Etc.; Gustavo Dudamel: Los Angeles Philharmonic Orchestra, Los Angeles Master Chorale - Adams: The Gospel According To The Other Mary (2014) [FLAC]/07 Adams: The Gospel According To The Other Mary - Act 2: Golgotha.flac Track gain : 4.90 dB
Peak : 0.735626
CRC32 hash (test run) : 4BF4FC9C
CRC32 hash : 4BF4FC9C
CRC32 hash (skip zero) : F8A48D74
AccurateRip v1 signature : CFDD5716
AccurateRip v2 signature : 38A100BD->Track not present in AccurateRip database.
StatisticsRead error : 0Jitter error (maybe fixed) : 0Retry sector count : 0Damaged sector count : 0

Track 08
Filename : /Users/julioflores/Music/Max Ripper/Kelley O'Connor, Tamara Mumford, Etc.; Gustavo Dudamel: Los Angeles Philharmonic Orchestra, Los Angeles Master Chorale - Adams: The Gospel According To The Other Mary (2014) [FLAC]/08 Adams: The Gospel According To The Other Mary - Act 2: Daughters Of Jerusalem, Weep Not For Me.flac Track gain : -5.97 dB
Peak : 0.974457
CRC32 hash (test run) : 1C0101CB
CRC32 hash : 1C0101CB
CRC32 hash (skip zero) : 05B7FEC1
AccurateRip v1 signature : 842B8FED
AccurateRip v2 signature : 077A01C8->Track not present in AccurateRip database.
StatisticsRead error : 0Jitter error (maybe fixed) : 0Retry sector count : 0Damaged sector count : 0

Track 09
Filename : /Users/julioflores/Music/Max Ripper/Kelley O'Connor, Tamara Mumford, Etc.; Gustavo Dudamel: Los Angeles Philharmonic Orchestra, Los Angeles Master Chorale - Adams: The Gospel According To The Other Mary (2014) [FLAC]/09 Adams: The Gospel According To The Other Mary - Act 2: Now There Stood At The Cross Of Jesus....flac Track gain : 8.51 dB
Peak : 0.330017
CRC32 hash (test run) : 486F0002
CRC32 hash : 486F0002
CRC32 hash (skip zero) : 029E74FA
AccurateRip v1 signature : ACCA83B7
AccurateRip v2 signature : 303DA85A->Track not present in AccurateRip database.
StatisticsRead error : 0Jitter error (maybe fixed) : 0Retry sector count : 0Damaged sector count : 0

Track 10
Filename : /Users/julioflores/Music/Max Ripper/Kelley O'Connor, Tamara Mumford, Etc.; Gustavo Dudamel: Los Angeles Philharmonic Orchestra, Los Angeles Master Chorale - Adams: The Gospel According To The Other Mary (2014) [FLAC]/10 Adams: The Gospel According To The Other Mary - Act 2: When Jesus Saw His Mother.flac Track gain : 8.01 dB
Peak : 0.367310
CRC32 hash (test run) : 4B631737
CRC32 hash : 4B631737
CRC32 hash (skip zero) : F8AC99D2
AccurateRip v1 signature : 2B9BBE56
AccurateRip v2 signature : 076540CD->Track not present in AccurateRip database.
StatisticsRead error : 0Jitter error (maybe fixed) : 0Retry sector count : 0Damaged sector count : 0

Track 11
Filename : /Users/julioflores/Music/Max Ripper/Kelley O'Connor, Tamara Mumford, Etc.; Gustavo Dudamel: Los Angeles Philharmonic Orchestra, Los Angeles Master Chorale - Adams: The Gospel According To The Other Mary (2014) [FLAC]/11 Adams: The Gospel According To The Other Mary - Act 2: Night.flac Track gain : 11.32 dB
Peak : 0.958710
CRC32 hash (test run) : 8D7B8077
CRC32 hash : 8D7B8077
CRC32 hash (skip zero) : 0148A959
AccurateRip v1 signature : 411A561C
AccurateRip v2 signature : 398C8A22->Track not present in AccurateRip database.
StatisticsRead error : 0Jitter error (maybe fixed) : 0Retry sector count : 0Damaged sector count : 0

Track 12
Filename : /Users/julioflores/Music/Max Ripper/Kelley O'Connor, Tamara Mumford, Etc.; Gustavo Dudamel: Los Angeles Philharmonic Orchestra, Los Angeles Master Chorale - Adams: The Gospel According To The Other Mary (2014) [FLAC]/12 Adams: The Gospel According To The Other Mary - Act 2: His Son Cried Out To Them....flac Track gain : -2.52 dB
Peak : 0.966339
CRC32 hash (test run) : E241C2E4
CRC32 hash : E241C2E4
CRC32 hash (skip zero) : 94B6DD93
AccurateRip v1 signature : A3C706D2
AccurateRip v2 signature : ED11E4DF->Track not present in AccurateRip database.
StatisticsRead error : 0Jitter error (maybe fixed) : 0Retry sector count : 0Damaged sector count : 0

Track 13
Filename : /Users/julioflores/Music/Max Ripper/Kelley O'Connor, Tamara Mumford, Etc.; Gustavo Dudamel: Los Angeles Philharmonic Orchestra, Los Angeles Master Chorale - Adams: The Gospel According To The Other Mary (2014) [FLAC]/13 Adams: The Gospel According To The Other Mary - Act 2: The Sepulchre; Mary's Awakening.flac Track gain : 10.20 dB
Peak : 0.300720
CRC32 hash (test run) : 262E51FD
CRC32 hash : 262E51FD
CRC32 hash (skip zero) : 740F3D5F
AccurateRip v1 signature : BDAA3776
AccurateRip v2 signature : F28148A9->Track not present in AccurateRip database.
StatisticsRead error : 0Jitter error (maybe fixed) : 0Retry sector count : 0Damaged sector count : 0

Track 14
Filename : /Users/julioflores/Music/Max Ripper/Kelley O'Connor, Tamara Mumford, Etc.; Gustavo Dudamel: Los Angeles Philharmonic Orchestra, Los Angeles Master Chorale - Adams: The Gospel According To The Other Mary (2014) [FLAC]/14 Adams: The Gospel According To The Other Mary - Act 2: Mary Awakes At Dawn.flac Track gain : 14.53 dB
Peak : 0.140686
CRC32 hash (test run) : 4C3F7ABB
CRC32 hash : 4C3F7ABB
CRC32 hash (skip zero) : 18826379
AccurateRip v1 signature : 3436E30D
AccurateRip v2 signature : A31FF284->Track not present in AccurateRip database.
StatisticsRead error : 0Jitter error (maybe fixed) : 0Retry sector count : 0Damaged sector count : 0

Track 15
Filename : /Users/julioflores/Music/Max Ripper/Kelley O'Connor, Tamara Mumford, Etc.; Gustavo Dudamel: Los Angeles Philharmonic Orchestra, Los Angeles Master Chorale - Adams: The Gospel According To The Other Mary (2014) [FLAC]/15 Adams: The Gospel According To The Other Mary - Act 2: It Is Spring.flac Track gain : 4.92 dB
Peak : 0.701843
CRC32 hash (test run) : 388B662D
CRC32 hash : 388B662D
CRC32 hash (skip zero) : AD8ADE26
AccurateRip v1 signature : 0DD623B7
AccurateRip v2 signature : 62BEA2B6->Track not present in AccurateRip database.
StatisticsRead error : 0Jitter error (maybe fixed) : 0Retry sector count : 0Damaged sector count : 0

Track 16
Filename : /Users/julioflores/Music/Max Ripper/Kelley O'Connor, Tamara Mumford, Etc.; Gustavo Dudamel: Los Angeles Philharmonic Orchestra, Los Angeles Master Chorale - Adams: The Gospel According To The Other Mary (2014) [FLAC]/16 Adams: The Gospel According To The Other Mary - Act 2: Earthquake & Recognition.flac Track gain : -1.40 dB
Peak : 0.965149
CRC32 hash (test run) : E766A4F6
CRC32 hash : E766A4F6
CRC32 hash (skip zero) : A5C15CDB
AccurateRip v1 signature : EF7CE2CD
AccurateRip v2 signature : 766B0FFE->Track not present in AccurateRip database.
StatisticsRead error : 0Jitter error (maybe fixed) : 0Retry sector count : 0Damaged sector count : 0

Track 17
Filename : /Users/julioflores/Music/Max Ripper/Kelley O'Connor, Tamara Mumford, Etc.; Gustavo Dudamel: Los Angeles Philharmonic Orchestra, Los Angeles Master Chorale - Adams: The Gospel According To The Other Mary (2014) [FLAC]/17 Adams: The Gospel According To The Other Mary - Act 2: Why Seek Ye The Living Among The Dead?.flac Track gain : 8.95 dB
Peak : 0.364746
CRC32 hash (test run) : 35727CE0
CRC32 hash : 35727CE0
CRC32 hash (skip zero) : 2419441D
AccurateRip v1 signature : 9D558EEE
AccurateRip v2 signature : B37D8F8E->Track not present in AccurateRip database.
StatisticsRead error : 0Jitter error (maybe fixed) : 0Retry sector count : 0Damaged sector count : 0

No errors occurred

End of status report

--BEGIN XLD SIGNATURE--
kFQMei.PFQDkiwdIGcUgbO22T9hUWWdfy6YaYL2sDZ.rSEbUYPwkvHfiyFLcEdlDnwzzj8WOAMsjppmsE0rY4vM8G9AW2CroRaJc.F8
--END XLD SIGNATURE--

Thanks to the original releaser
Download Links:
(Premium Recommended)


All above links are interchangable. No password
Direct Download

Tags: Dudamel, Gospel, According

Dudamel - Adams: Gospel According to the Other Mary (2014) Download via Hotfile Rapidshare Fileserve Megaupload & FileSonic, Dudamel - Adams: Gospel According to the Other Mary (2014) free torrent downloads included crack, serial, keygen.Dudamel - Adams: Gospel According to the Other Mary (2014) Fast Download via Rapidshare Hotfile Fileserve Filesonic Megaupload, Dudamel - Adams: Gospel According to the Other Mary (2014) Torrents and Emule Download or anything related.
Leave a Comment
Your Name:
E-Mail:
Add Comments:

Enter Code: