VA - Best Country Album in the World... Ever! (1994) 2CD

Download Now

VA - Best Country Album in the World... Ever! (1994) 2CD

VA - Best Country Album in the World... Ever! (1994) 2CD
XLD | FLAC | Tracks (Cue&Log) ~ 840 Mb (incl 5%) | Mp3 (CBR320) ~ 316 Mb (incl 5%) | Scans included
Genre: Country, Country-Pop | Label: EMI | # 7243 8 44484 2 4 (7243 8 31646 2 2) | Time: 02:08:47

"Almost all of country music's heavies contribute to this two-disc set, and many of the greatest anthems are all present. Forty tracks in all, including 'Rhinestone Cowboy' by Glenn Campbell, Kenny Roger's 'Coward of the County', 'Ring of Fire' by Johnny Cash, 'Me & Bobby McGee' by Kris Kristofferson, Tammy Wynette's 'Stand by Your Man', Patsy Cline's 'Crazy', 'Achy Breaky Heart' (Billy Ray Cyrus), The Charlie Daniels Band's 'Devil Went Down to Georgia', 'I Will Always Love You' by Dolly Parton and Much More."

"I have had this CD since it first came out in the 1990's still listen to it and enjoy it now. Yes I'm a big Country music fan why do people look at you strange when you say that, but whenever I put it on at any party they all sing along hence me buying this CD for my Dad for his birthday as he has borrowed mine. Great CD with the all time classics Rose Garden, Don't you make my Brown Eyes blue and many more.

Review by Lisa Staite, Amazon.co.uk
"


"I bought this album in the 90's - not specifically a 'Country' fan but loved these songs. Happily dancing and singing to these before going out to collect my then young kids only to come home and find I'd been burgled. Unfortunately I left one half of this album in my brand new (and then expensive) long-saved for stereo which was part of the haul stolen in the burglary. I still have the other half but never got round to replacing the whole album (oh how I miss Charlie Daniels!) partially due to the distress caused by the memory of the burglary. Browsing CD's and looking for music I wish to add to my collection I thought to look up this album - funny how it's more expensive now than when first released but the stereo I paid over £400 then would be half the price now!

It is a cracking album, top notch popular country songs for the novice; I just wish I had removed it from my CD player that day! I wonder what the burglar did with the other half...?

Recommend this album...entirely & completely.

Review by Ms T K Chandler, Amazon.co.uk
"


Tracklist:

CD1:

01. Glen Campbell - Rhinestone Cowboy (03:15)
02. Dolly Parton - Jolene (02:38)
03. Dr Hook - When You're in Love with a Beautiful Woman (02:55)
04. Lynn Anderson - Rose Garden (02:53)
05. Billie Jo Spears - Blanket on the Ground (03:31)
06. Kenny Rogers - Coward of the Country (04:20)
07. Don Williams - I Recall a Gypsy Woman (03:20)
08. Charlie Rich - The Most Beautiful Girl (02:38)
09. Bobbie Gentry - Ode to Billy Joe (04:14)
10. Tammy Wynette - Stand by Your Man (02:40)
11. Patsy Cline - Crazy (02:43)
12. Jim Reeves - I Love You Because (02:45)
13. Crystal Galye - Don't It Make My Brown Eyes Blue (02:32)
14. Bobbie Genry & Glen Campbell - All I Have to Do Is Dream (02:32)
15. Lee Greenwood - The Wind Beneath My Wings (03:56)
16. Juice Newton - Angel of the Morning (04:07)
17. Olivia Newton John - Banks of the Ohio (03:15)
18. Rita Coolidge - We're All Alone (03:33)
19. Don McLean - Crying (03:41)
20. Skeeter Davis - The End of the World (02:36)

CD2:

01. Billy Ray Cyrus - Achy Breaky Heart (03:24)
02. The Charlie Daniels Band - The Devil Went Down to Georgia (03:35)
03. Johnnie Allan - The Promised Land (02:01)
04. Billy Swan - I Can Help (03:58)
05. Johnny Cash - Ring of Fire (02:34)
06. Bobbie Gentry - I'll Never Fall in Love Again (02:52)
07. Roger Miller - King of the Road (02:27)
08. Joe South - Games People Play (03:32)
09. Jimmy Buffet - Margaritaville (04:10)
10. Glen Campbell - Wichita Lineman (03:01)
11. Dolly Parton - I Will Always Love You (03:05)
12. Nanci Griffith - From a Distance (04:11)
13. Patsy Cline - I Fall to Pieces (02:49)
14. Dr. Hook - A Little Bit More (02:52)
15. Kenny Rogers - Lucille (03:34)
16. Billie Jo Spears - What I've Got in Mind (02:42)
17. Roy Orbison - It's Over (02:46)
18. Kris Kristofferson - Me & Bobby McGee (04:19)
19. Willie Nelson - Funny How Times Slip Away (03:02)
20. Billy Ray Cyrus - The Night They Drove Old Dixie Down (03:30)


X Lossless Decoder version 20140504 (147.0)

XLD extraction logfile from 2014-08-29 06:39:53 +0400

Various Artists / Best Country Album in the World... Ever, Disc 1

Used drive : PIONEER BD-RW BDR-207M (revision 1.21)
Media type : Pressed CD

Ripper mode : CDParanoia III 10.2
Disable audio cache : OK for the drive with a cache less than 2750KiB
Make use of C2 pointers : NO
Read offset correction : 667
Max retry count : 20
Gap status : Analyzed, Appended

TOC of the extracted CD
Track | Start | Length | Start sector | End sector
--1 | 00:00:33 | 03:14:55 | 33 | 14637 2 | 03:15:13 | 02:38:22 | 14638 | 26509 3 | 05:53:35 | 02:55:38 | 26510 | 39672 4 | 08:48:73 | 02:53:32 | 39673 | 52679 5 | 11:42:30 | 03:31:23 | 52680 | 68527 6 | 15:13:53 | 04:20:65 | 68528 | 88092 7 | 19:34:43 | 03:20:50 | 88093 | 103142 8 | 22:55:18 | 02:38:22 | 103143 | 115014 9 | 25:33:40 | 04:14:63 | 115015 | 134127
10 | 29:48:28 | 02:40:40 | 134128 | 146167
11 | 32:28:68 | 02:43:55 | 146168 | 158447
12 | 35:12:48 | 02:45:32 | 158448 | 170854
13 | 37:58:05 | 02:32:03 | 170855 | 182257
14 | 40:30:08 | 02:32:40 | 182258 | 193697
15 | 43:02:48 | 03:56:05 | 193698 | 211402
16 | 46:58:53 | 04:07:35 | 211403 | 229962
17 | 51:06:13 | 03:15:62 | 229963 | 244649
18 | 54:22:00 | 03:33:45 | 244650 | 260669
19 | 57:55:45 | 03:41:13 | 260670 | 277257
20 | 61:36:58 | 02:36:12 | 277258 | 288969

List of alternate offset correction values# | Absolute | Relative | Confidence
1 | 401 | -266 | 2

AccurateRip Summary (DiscID: 002de13e-02a29565-1f0f0c14)
Track 01 : OK (v1+v2, confidence 18/44)
Track 02 : OK (v1+v2, confidence 18/44)
Track 03 : OK (v1+v2, confidence 18/46)
Track 04 : OK (v1+v2, confidence 18/45)
Track 05 : OK (v1+v2, confidence 18/43)
Track 06 : OK (v1+v2, confidence 18/44)
Track 07 : OK (v1+v2, confidence 18/45)
Track 08 : OK (v1+v2, confidence 18/44)
Track 09 : OK (v1+v2, confidence 17/43)
Track 10 : OK (v1+v2, confidence 17/44)
Track 11 : OK (v1+v2, confidence 17/43)
Track 12 : OK (v1+v2, confidence 18/44)
Track 13 : OK (v1+v2, confidence 18/44)
Track 14 : OK (v1+v2, confidence 18/44)
Track 15 : OK (v1+v2, confidence 18/44)
Track 16 : OK (v1+v2, confidence 18/44)
Track 17 : OK (v1+v2, confidence 18/45)
Track 18 : OK (v1+v2, confidence 18/44)
Track 19 : OK (v1+v2, confidence 18/44)
Track 20 : OK (v1+v2, confidence 18/44)->All tracks accurately ripped.

All Tracks
Album gain : -5.70 dB
Peak : 1.000000
StatisticsRead error : 0Skipped (treated as error) : 0Edge jitter error (maybe fixed) : 0Atom jitter error (maybe fixed) : 1Drift error (maybe fixed) : 0Dropped bytes error (maybe fixed) : 0Duplicated bytes error (maybe fixed) : 0

Track 01
Filename : /01 Glen Campbell - Rhinestone Cowboy.flac
Pre-gap length : 00:02:33 Track gain : -3.37 dB
Peak : 0.989227
CRC32 hash (test run) : DA50E248
CRC32 hash : DA50E248
CRC32 hash (skip zero) : 1A2D5CD2
AccurateRip v1 signature : 981F16BC
AccurateRip v2 signature : 174A2229->Accurately ripped (v1+v2, confidence 10+8/44)
StatisticsRead error : 0Skipped (treated as error) : 0Edge jitter error (maybe fixed) : 0Atom jitter error (maybe fixed) : 0Drift error (maybe fixed) : 0Dropped bytes error (maybe fixed) : 0Duplicated bytes error (maybe fixed) : 0

Track 02
Filename : /02 Dolly Parton - Jolene.flac
Pre-gap length : 00:00:48 Track gain : -6.29 dB
Peak : 0.982910
CRC32 hash (test run) : 05911907
CRC32 hash : 05911907
CRC32 hash (skip zero) : A9543229
AccurateRip v1 signature : 1665A7B9
AccurateRip v2 signature : F5189361->Accurately ripped (v1+v2, confidence 10+8/44)
StatisticsRead error : 0Skipped (treated as error) : 0Edge jitter error (maybe fixed) : 0Atom jitter error (maybe fixed) : 0Drift error (maybe fixed) : 0Dropped bytes error (maybe fixed) : 0Duplicated bytes error (maybe fixed) : 0

Track 03
Filename : /03 Dr Hook - When You're in Love with a Beautiful Woman.flac
Pre-gap length : 00:00:45 Track gain : -5.52 dB
Peak : 0.988007
CRC32 hash (test run) : C86716CA
CRC32 hash : C86716CA
CRC32 hash (skip zero) : 8BDC33BF
AccurateRip v1 signature : 2C0526FE
AccurateRip v2 signature : D31C93B8->Accurately ripped (v1+v2, confidence 10+8/46)
StatisticsRead error : 0Skipped (treated as error) : 0Edge jitter error (maybe fixed) : 0Atom jitter error (maybe fixed) : 0Drift error (maybe fixed) : 0Dropped bytes error (maybe fixed) : 0Duplicated bytes error (maybe fixed) : 0

Track 04
Filename : /04 Lynn Anderson - Rose Garden.flac
Pre-gap length : 00:01:03 Track gain : -5.66 dB
Peak : 0.999969
CRC32 hash (test run) : C6D338F0
CRC32 hash : C6D338F0
CRC32 hash (skip zero) : F3B91A0E
AccurateRip v1 signature : 9BD1F881
AccurateRip v2 signature : 46C3265C->Accurately ripped (v1+v2, confidence 10+8/45)
StatisticsRead error : 0Skipped (treated as error) : 0Edge jitter error (maybe fixed) : 0Atom jitter error (maybe fixed) : 0Drift error (maybe fixed) : 0Dropped bytes error (maybe fixed) : 0Duplicated bytes error (maybe fixed) : 0

Track 05
Filename : /05 Billie Jo Spears - Blanket on the Ground.flac
Pre-gap length : 00:00:07 Track gain : -3.17 dB
Peak : 0.995239
CRC32 hash (test run) : 02CEAECF
CRC32 hash : 02CEAECF
CRC32 hash (skip zero) : C8CE692A
AccurateRip v1 signature : 807B5F51
AccurateRip v2 signature : 61D7D93B->Accurately ripped (v1+v2, confidence 10+8/43)
StatisticsRead error : 0Skipped (treated as error) : 0Edge jitter error (maybe fixed) : 0Atom jitter error (maybe fixed) : 0Drift error (maybe fixed) : 0Dropped bytes error (maybe fixed) : 0Duplicated bytes error (maybe fixed) : 0

Track 06
Filename : /06 Kenny Rogers - Coward of the Country.flac
Pre-gap length : 00:00:05 Track gain : -2.53 dB
Peak : 0.961273
CRC32 hash (test run) : 5281F723
CRC32 hash : 5281F723
CRC32 hash (skip zero) : F6FC517B
AccurateRip v1 signature : 64622557
AccurateRip v2 signature : BD337808->Accurately ripped (v1+v2, confidence 10+8/44)
StatisticsRead error : 0Skipped (treated as error) : 0Edge jitter error (maybe fixed) : 0Atom jitter error (maybe fixed) : 0Drift error (maybe fixed) : 0Dropped bytes error (maybe fixed) : 0Duplicated bytes error (maybe fixed) : 0

Track 07
Filename : /07 Don Williams - I Recall a Gypsy Woman.flac
Pre-gap length : 00:00:23 Track gain : -0.65 dB
Peak : 0.978149
CRC32 hash (test run) : 45D10C06
CRC32 hash : 45D10C06
CRC32 hash (skip zero) : 4A99178D
AccurateRip v1 signature : 09EF616D
AccurateRip v2 signature : 3B351887->Accurately ripped (v1+v2, confidence 10+8/45)
StatisticsRead error : 0Skipped (treated as error) : 0Edge jitter error (maybe fixed) : 0Atom jitter error (maybe fixed) : 0Drift error (maybe fixed) : 0Dropped bytes error (maybe fixed) : 0Duplicated bytes error (maybe fixed) : 0

Track 08
Filename : /08 Charlie Rich - The Most Beautiful Girl.flac
Pre-gap length : 00:00:20 Track gain : -4.22 dB
Peak : 0.992950
CRC32 hash (test run) : 0B384D85
CRC32 hash : 0B384D85
CRC32 hash (skip zero) : 824B1F39
AccurateRip v1 signature : EE18B960
AccurateRip v2 signature : CAF2A4AF->Accurately ripped (v1+v2, confidence 10+8/44)
StatisticsRead error : 0Skipped (treated as error) : 0Edge jitter error (maybe fixed) : 0Atom jitter error (maybe fixed) : 0Drift error (maybe fixed) : 0Dropped bytes error (maybe fixed) : 0Duplicated bytes error (maybe fixed) : 0

Track 09
Filename : /09 Bobbie Gentry - Ode to Billy Joe.flac
Pre-gap length : 00:00:10 Track gain : -4.63 dB
Peak : 0.984344
CRC32 hash (test run) : EEE07926
CRC32 hash : EEE07926
CRC32 hash (skip zero) : 76010949
AccurateRip v1 signature : 48576E73
AccurateRip v2 signature : 2953EC77->Accurately ripped (v1+v2, confidence 9+8/43)
StatisticsRead error : 0Skipped (treated as error) : 0Edge jitter error (maybe fixed) : 0Atom jitter error (maybe fixed) : 0Drift error (maybe fixed) : 0Dropped bytes error (maybe fixed) : 0Duplicated bytes error (maybe fixed) : 0

Track 10
Filename : /10 Tammy Wynette - Stand by Your Man.flac
Pre-gap length : 00:00:55 Track gain : -6.60 dB
Peak : 1.000000
CRC32 hash (test run) : AAA859C7
CRC32 hash : AAA859C7
CRC32 hash (skip zero) : E6157185
AccurateRip v1 signature : FB456C9A
AccurateRip v2 signature : 05333E22->Accurately ripped (v1+v2, confidence 9+8/44)
StatisticsRead error : 0Skipped (treated as error) : 0Edge jitter error (maybe fixed) : 0Atom jitter error (maybe fixed) : 0Drift error (maybe fixed) : 0Dropped bytes error (maybe fixed) : 0Duplicated bytes error (maybe fixed) : 0

Track 11
Filename : /11 Patsy Cline - Crazy.flac
Pre-gap length : 00:00:25 Track gain : -4.85 dB
Peak : 0.986176
CRC32 hash (test run) : 04E1987E
CRC32 hash : 04E1987E
CRC32 hash (skip zero) : C8C4060A
AccurateRip v1 signature : 306C9AD8
AccurateRip v2 signature : C543AD96->Accurately ripped (v1+v2, confidence 9+8/43)
StatisticsRead error : 0Skipped (treated as error) : 0Edge jitter error (maybe fixed) : 0Atom jitter error (maybe fixed) : 0Drift error (maybe fixed) : 0Dropped bytes error (maybe fixed) : 0Duplicated bytes error (maybe fixed) : 0

Track 12
Filename : /12 Jim Reeves - I Love You Because.flac
Pre-gap length : 00:00:65 Track gain : -5.50 dB
Peak : 0.980835
CRC32 hash (test run) : 020247AC
CRC32 hash : 020247AC
CRC32 hash (skip zero) : FDA7C9B2
AccurateRip v1 signature : 334C3135
AccurateRip v2 signature : 814AE5D6->Accurately ripped (v1+v2, confidence 10+8/44)
StatisticsRead error : 0Skipped (treated as error) : 0Edge jitter error (maybe fixed) : 0Atom jitter error (maybe fixed) : 0Drift error (maybe fixed) : 0Dropped bytes error (maybe fixed) : 0Duplicated bytes error (maybe fixed) : 0

Track 13
Filename : /13 Crystal Galye - Don't It Make My Brown Eyes Blue.flac
Pre-gap length : 00:00:52 Track gain : -3.62 dB
Peak : 0.980011
CRC32 hash (test run) : FEFF8D1C
CRC32 hash : FEFF8D1C
CRC32 hash (skip zero) : 57D043CD
AccurateRip v1 signature : B69EF4FA
AccurateRip v2 signature : 2148D7A9->Accurately ripped (v1+v2, confidence 10+8/44)
StatisticsRead error : 0Skipped (treated as error) : 0Edge jitter error (maybe fixed) : 0Atom jitter error (maybe fixed) : 0Drift error (maybe fixed) : 0Dropped bytes error (maybe fixed) : 0Duplicated bytes error (maybe fixed) : 0

Track 14
Filename : /14 Bobbie Genry & Glen Campbell - All I Have to Do Is Dream.flac
Pre-gap length : 00:00:40 Track gain : -7.14 dB
Peak : 1.000000
CRC32 hash (test run) : E132FDDD
CRC32 hash : E132FDDD
CRC32 hash (skip zero) : 7A91887D
AccurateRip v1 signature : 7CC8F905
AccurateRip v2 signature : 6AB8F1D8->Accurately ripped (v1+v2, confidence 10+8/44)
StatisticsRead error : 0Skipped (treated as error) : 0Edge jitter error (maybe fixed) : 0Atom jitter error (maybe fixed) : 0Drift error (maybe fixed) : 0Dropped bytes error (maybe fixed) : 0Duplicated bytes error (maybe fixed) : 0

Track 15
Filename : /15 Lee Greenwood - The Wind Beneath My Wings.flac
Pre-gap length : 00:00:15 Track gain : -4.04 dB
Peak : 0.989380
CRC32 hash (test run) : 99B80756
CRC32 hash : 99B80756
CRC32 hash (skip zero) : 498F76B6
AccurateRip v1 signature : 36A8D71C
AccurateRip v2 signature : C8141B8D->Accurately ripped (v1+v2, confidence 10+8/44)
StatisticsRead error : 0Skipped (treated as error) : 0Edge jitter error (maybe fixed) : 0Atom jitter error (maybe fixed) : 0Drift error (maybe fixed) : 0Dropped bytes error (maybe fixed) : 0Duplicated bytes error (maybe fixed) : 0

Track 16
Filename : //16 Juice Newton - Angel of the Morning.flac
Pre-gap length : 00:00:20 Track gain : -5.72 dB
Peak : 0.991028
CRC32 hash (test run) : D41DFE45
CRC32 hash : D41DFE45
CRC32 hash (skip zero) : 6623FDFD
AccurateRip v1 signature : 74E27039
AccurateRip v2 signature : 6D77D71E->Accurately ripped (v1+v2, confidence 10+8/44)
StatisticsRead error : 0Skipped (treated as error) : 0Edge jitter error (maybe fixed) : 0Atom jitter error (maybe fixed) : 0Drift error (maybe fixed) : 0Dropped bytes error (maybe fixed) : 0Duplicated bytes error (maybe fixed) : 0

Track 17
Filename : /17 Olivia Newton John - Banks of the Ohio.flac
Pre-gap length : 00:00:28 Track gain : -5.30 dB
Peak : 0.983398
CRC32 hash (test run) : 77261319
CRC32 hash : 77261319
CRC32 hash (skip zero) : 9166DD19
AccurateRip v1 signature : F416DA46
AccurateRip v2 signature : 31AA3C29->Accurately ripped (v1+v2, confidence 10+8/45)
StatisticsRead error : 0Skipped (treated as error) : 0Edge jitter error (maybe fixed) : 0Atom jitter error (maybe fixed) : 0Drift error (maybe fixed) : 0Dropped bytes error (maybe fixed) : 0Duplicated bytes error (maybe fixed) : 0

Track 18
Filename : /18 Rita Coolidge - We're All Alone.flac
Pre-gap length : 00:00:52 Track gain : -7.35 dB
Peak : 1.000000
CRC32 hash (test run) : ECAD18AD
CRC32 hash : ECAD18AD
CRC32 hash (skip zero) : B4B47320
AccurateRip v1 signature : 5C08328B
AccurateRip v2 signature : 40909008->Accurately ripped (v1+v2, confidence 10+8/44)
StatisticsRead error : 0Skipped (treated as error) : 0Edge jitter error (maybe fixed) : 0Atom jitter error (maybe fixed) : 0Drift error (maybe fixed) : 0Dropped bytes error (maybe fixed) : 0Duplicated bytes error (maybe fixed) : 0

Track 19
Filename : /19 Don McLean - Crying.flac
Pre-gap length : 00:00:47 Track gain : -6.05 dB
Peak : 0.979218
CRC32 hash (test run) : D515DCA1
CRC32 hash : D515DCA1
CRC32 hash (skip zero) : 670A5D90
AccurateRip v1 signature : 7EF7D46B
AccurateRip v2 signature : 366119B8->Accurately ripped (v1+v2, confidence 10+8/44)
StatisticsRead error : 0Skipped (treated as error) : 0Edge jitter error (maybe fixed) : 0Atom jitter error (maybe fixed) : 1Drift error (maybe fixed) : 0Dropped bytes error (maybe fixed) : 0Duplicated bytes error (maybe fixed) : 0

Track 20
Filename : /20 Skeeter Davis - The End of the World.flac
Pre-gap length : 00:00:60 Track gain : -5.86 dB
Peak : 0.986450
CRC32 hash (test run) : 6B3280D7
CRC32 hash : 6B3280D7
CRC32 hash (skip zero) : 2DE29367
AccurateRip v1 signature : 216E74E6
AccurateRip v2 signature : E722AB63->Accurately ripped (v1+v2, confidence 10+8/44)
StatisticsRead error : 0Skipped (treated as error) : 0Edge jitter error (maybe fixed) : 0Atom jitter error (maybe fixed) : 0Drift error (maybe fixed) : 0Dropped bytes error (maybe fixed) : 0Duplicated bytes error (maybe fixed) : 0

No errors occurred

End of status report

[CUETools log; Date: 30.08.2015 14:55:01; Version: 2.1.4]
Pregap length 00:00:33.
[CTDB TOCID: PILZkqqPZkXvNjyuB4glO6B4074-] found.
Track | CTDB Status
1 | (6/7) Accurately ripped
2 | (6/7) Accurately ripped
3 | (6/7) Accurately ripped
4 | (6/7) Accurately ripped
5 | (6/7) Accurately ripped
6 | (6/7) Accurately ripped
7 | (6/7) Accurately ripped
8 | (6/7) Accurately ripped
9 | (6/7) Accurately ripped
10 | (6/7) Accurately ripped
11 | (6/7) Accurately ripped
12 | (6/7) Accurately ripped
13 | (6/7) Accurately ripped
14 | (6/7) Accurately ripped
15 | (6/7) Accurately ripped
16 | (6/7) Accurately ripped
17 | (6/7) Accurately ripped
18 | (6/7) Accurately ripped
19 | (6/7) Accurately ripped
20 | (6/7) Accurately ripped
[AccurateRip ID: 002de13e-02a29565-1f0f0c14] found.
Track [ CRC | V2 ] Status
01 [981f16bc|174a2229] (10+10/48) Accurately ripped
02 [1665a7b9|f5189361] (10+10/48) Accurately ripped
03 [2c0526fe|d31c93b8] (10+10/50) Accurately ripped
04 [9bd1f881|46c3265c] (10+10/49) Accurately ripped
05 [807b5f51|61d7d93b] (10+10/47) Accurately ripped
06 [64622557|bd337808] (10+10/48) Accurately ripped
07 [09ef616d|3b351887] (10+10/49) Accurately ripped
08 [ee18b960|caf2a4af] (10+10/48) Accurately ripped
09 [48576e73|2953ec77] (09+10/47) Accurately ripped
10 [fb456c9a|05333e22] (09+10/48) Accurately ripped
11 [306c9ad8|c543ad96] (09+10/47) Accurately ripped
12 [334c3135|814ae5d6] (10+10/48) Accurately ripped
13 69ef4fa|2148d7a9 (10+10/48) Accurately ripped
14 [7cc8f905|6ab8f1d8] (10+10/48) Accurately ripped
15 [36a8d71c|c8141b8d] (10+10/48) Accurately ripped
16 [74e27039|6d77d71e] (10+10/48) Accurately ripped
17 [f416da46|31aa3c29] (10+10/49) Accurately ripped
18 [5c08328b|40909008] (10+10/48) Accurately ripped
19 [7ef7d46b|366119b8] (10+10/48) Accurately ripped
20 [216e74e6|e722ab63] (10+10/48) Accurately ripped
Offsetted by -266:
01 [72c27318] (02/48) Accurately ripped
02 [56db98c9] (02/48) Accurately ripped
03 [020589ee] (02/50) Accurately ripped
04 [ea1eef3d] (02/49) Accurately ripped
05 [330df915] (02/47) Accurately ripped
06 [c6f30a6d] (02/48) Accurately ripped
07 [ef7b6f11] (02/49) Accurately ripped
08 [4e6e4bb4] (02/48) Accurately ripped
09 [3c390475] (02/47) Accurately ripped
10 [29d68616] (02/48) Accurately ripped
11 [9d6fc34e] (02/47) Accurately ripped
12 [cee5a91d] (02/48) Accurately ripped
13 [6d09726a] (02/48) Accurately ripped
14 [50c9884f] (02/48) Accurately ripped
15 [344871da] (02/48) Accurately ripped
16 [ed45a9ff] (02/48) Accurately ripped
17 [747ada70] (02/49) Accurately ripped
18 [82676f11] (02/48) Accurately ripped
19 [885078a7] (02/48) Accurately ripped
20 [2edcd560] (02/48) Accurately ripped
Offsetted by -2667:
01 [1ac85d2e] (00/48) No match
02 [2a2c98b1] (00/48) No match
03 [653eec06] (00/50) No match
04 [6984cac3] (00/49) No match
05 [ae10d0cf] (00/47) No match
06 [3329dadc] (00/48) No match
07 [077255fb] (00/49) No match (V2 was not tested)
08 [ad3ccc16] (00/48) No match
09 [2d267da2] (00/47) No match
10 [040f2f7c] (00/48) No match
11 [1dd65fad] (00/47) No match
12 72d3b01 (00/48) No match
13 [efcaa8c2] (00/48) No match
14 [65555250] (00/48) No match
15 [a591818d] (00/48) No match
16 2aa5be6 (00/48) No match
17 [021c7021] (00/49) No match
18 [92a81ed8] (00/48) No match
19 [55f093ed] (00/48) No match
20 [1a9f7219] (00/48) No match
Offsetted by -2665:
01 [d3d87582] (00/48) No match
02 [6efb96e1] (00/48) No match
03 [0178a9d6] (00/50) No match
04 [e9e47437] (00/49) No match
05 [0cf6b0db] (00/47) No match (V2 was not tested)
06 [3645a33e] (00/48) No match
07 [736f5ba7] (00/49) No match
08 [d30268d2] (00/48) No match
09 [a4946f08] (00/47) No match
10 [62066530] (00/48) No match
11 [7f2ee42f] (00/47) No match
12 [72a36a39] (00/48) No match
13 [7aee6e12] (00/48) No match
14 [809c890e] (00/48) No match
15 [eccde667] (00/48) No match
16 [d4682b58] (00/48) No match
17 [9181b37f] (00/49) No match
18 [f0af1a8a] (00/48) No match
19 [33390de1] (00/48) No match
20 0a83d67 (00/48) No match
Offsetted by -2353:
01 [99a748b2] (00/48) No match
02 [5d1e7c21] (00/48) No match
03 [34a85496] (00/50) No match
04 [242fb6e7] (00/49) No match (V2 was not tested)
05 [e10b382b] (00/47) No match
06 [1b33bef6] (00/48) No match
07 [419ed077] (00/49) No match
08 [d76deb62] (00/48) No match
09 [6b938930] (00/47) No match
10 [a4ab1ee0] (00/48) No match
11 [d11fa367] (00/47) No match
12 [aea83059] (00/48) No match
13 [44baaad2] (00/48) No match
14 [2001e4d6] (00/48) No match
15 [559b5b3f] (00/48) No match
16 [641294d0] (00/48) No match
17 [f336c0c7] (00/49) No match
18 [3cf07b02] (00/48) No match
19 [0b635e91] (00/48) No match
20 [1e0420ef] (00/48) No match
Offsetted by -2198:
01 [2006a620] (00/48) No match
02 1c86fa9 (00/48) No match
03 [80234b0e] (00/50) No match
04 [81258385] (00/49) No match
05 [1ba28bcd] (00/47) No match
06 [0c1ce8a1] (00/48) No match (V2 was not tested)
07 [72b80809] (00/49) No match
08 [c6c0de4c] (00/48) No match
09 [935c1d91] (00/47) No match
10 [9701e0de] (00/48) No match
11 [496bc0c2] (00/47) No match
12 [6eef7bcd] (00/48) No match
13 [640ee68a] (00/48) No match
14 [6210f75b] (00/48) No match
15 [6663e33e] (00/48) No match
16 [9b08e1d3] (00/48) No match
17 [5c5ea5bc] (00/49) No match
18 40dad65 (00/48) No match
19 [88d449ef] (00/48) No match
20 [09adad0c] (00/48) No match
Offsetted by -2038:
01 [f50e4060] (00/48) No match
02 [3277dea9] (00/48) No match
03 [522e9c0e] (00/50) No match (V2 was not tested)
04 [9f0a77c5] (00/49) No match
05 [c3788f8d] (00/47) No match
06 [04cb8741] (00/48) No match
07 [31c9cdc9] (00/49) No match
08 [9481d90c] (00/48) No match
09 [e5b78d71] (00/47) No match
10 [f442a91e] (00/48) No match
11 5152962 (00/47) No match
12 [03de3d4d] (00/48) No match
13 [df3c8f8a] (00/48) No match
14 [e85212bb] (00/48) No match
15 [a943675e] (00/48) No match
16 [2659b573] (00/48) No match
17 [2c03b31c] (00/49) No match
18 [163c5505] (00/48) No match
19 [af7a662f] (00/48) No match
20 [ec6d356c] (00/48) No match
Offsetted by -1819:
01 [9d70a84e] (00/48) No match
02 [21019831] (00/48) No match
03 [24e14c86] (00/50) No match
04 [07f572e3] (00/49) No match
05 [dacbe4af] (00/47) No match (V2 was not tested)
06 [592dbd2c] (00/48) No match
07 [e283badb] (00/49) No match
08 [3c886376] (00/48) No match
09 [fb3e4e92] (00/47) No match
10 [a580219c] (00/48) No match
11 [5871d6fd] (00/47) No match
12 [32eb6fc1] (00/48) No match
13 [63097542] (00/48) No match
14 [9347fd00] (00/48) No match
15 [a1988a9d] (00/48) No match
16 [9509f0b6] (00/48) No match
17 [81d403d1] (00/49) No match
18 [4e38fda8] (00/48) No match
19 [d5fa900d] (00/48) No match
20 [99302b49] (00/48) No match
Offsetted by -1753:
01 [7883cb22] (00/48) No match
02 [ffb05c61] (00/48) No match (V2 was not tested)
03 [4852c456] (00/50) No match
04 [944a4ad7] (00/49) No match
05 [166dc63b] (00/47) No match
06 fc291ce (00/48) No match
07 [ce217607] (00/49) No match
08 [1b0197b2] (00/48) No match
09 [606a6cb8] (00/47) No match
10 [c25e0dd0] (00/48) No match
11 [e4daebbf] (00/47) No match
12 [5d2785f9] (00/48) No match
13 [52a5e492] (00/48) No match
14 [17760b7e] (00/48) No match
15 [d0618ab7] (00/48) No match
16 [ee81ae68] (00/48) No match
17 [fde1b2ef] (00/49) No match
18 [6d1f6f9a] (00/48) No match
19 [5c524881] (00/48) No match
20 [f0526057] (00/48) No match
Offsetted by -1507:
01 [633f7b7e] (00/48) No match
02 [0f247d71] (00/48) No match
03 [5810f746] (00/50) No match
04 [4240b593] (00/49) No match (V2 was not tested)
05 [aee06bff] (00/47) No match
06 [3e1bd8e4] (00/48) No match
07 0b32fab (00/49) No match
08 [40f3e606] (00/48) No match
09 [c23d68ba] (00/47) No match
10 [e824db4c] (00/48) No match
11 [aa629635] (00/47) No match
12 [6ef035e1] (00/48) No match
13 [2cd5b202] (00/48) No match
14 [32ad58c8] (00/48) No match
15 [0a65ff75] (00/48) No match
16 [24b45a2e] (00/48) No match
17 [e3891119] (00/49) No match
18 [9a7a5e20] (00/48) No match
19 [ae24e0bd] (00/48) No match
20 [068c0ed1] (00/48) No match
Offsetted by -1403:
01 [fa846c8e] (00/48) No match (V2 was not tested)
02 [09301f31] (00/48) No match
03 [13cb8586] (00/50) No match
04 [55af2123] (00/49) No match
05 [f591ee6f] (00/47) No match
06 [dfc08ccc] (00/48) No match
07 [a018569b] (00/49) No match
08 [ed17bc36] (00/48) No match
09 [04927172] (00/47) No match
10 [fe5bc3dc] (00/48) No match
11 [705d809d] (00/47) No match
12 [82f1cd41] (00/48) No match
13 [7019c642] (00/48) No match
14 d247760 (00/48) No match
15 [82aa7bbd] (00/48) No match
16 [ff427d56] (00/48) No match
17 [041ac031] (00/49) No match
18 3e57e48 (00/48) No match
19 [a0dda64d] (00/48) No match
20 [80555aa9] (00/48) No match
Offsetted by -1192:
01 ea6732c (00/48) No match
02 [e47ddff9] (00/48) No match
03 [75973ebe] (00/50) No match (V2 was not tested)
04 d1b7671 (00/49) No match
05 [914dc361] (00/47) No match
06 [27b3a12f] (00/48) No match
07 [a0de2cfd] (00/49) No match
08 [fe07d3b0] (00/48) No match
09 [3c616cfb] (00/47) No match
10 [37bc658a] (00/48) No match
11 [8e581c30] (00/47) No match
12 [c42642d5] (00/48) No match
13 [c75796ba] (00/48) No match
14 [fafd86ad] (00/48) No match
15 [5e0e0b94] (00/48) No match
16 [e6fb7ad1] (00/48) No match
17 [1c56036e] (00/49) No match
18 [73c63823] (00/48) No match
19 [523be85b] (00/48) No match
20 [d4f5234e] (00/48) No match
Offsetted by -907:
01 [421bfdee] (00/48) No match
02 1b65db1 (00/48) No match (V2 was not tested)
03 [6bbb6706] (00/50) No match
04 25b4983 (00/49) No match
05 [e442fa0f] (00/47) No match
06 [e2aaabbc] (00/48) No match
07 [3d35d53b] (00/49) No match
08 [84879256] (00/48) No match
09 7144c42 (00/47) No match
10 [05d7ca3c] (00/48) No match
11 e1dde8d (00/47) No match
12 [1d6f8b81] (00/48) No match
13 [3ac0ebc2] (00/48) No match
14 [2a217f70] (00/48) No match
15 [852c2eed] (00/48) No match
16 [af2373c6] (00/48) No match
17 [ee340341] (00/49) No match
18 [caa952b8] (00/48) No match
19 [ff13caad] (00/48) No match
20 [d8da4e39] (00/48) No match
Offsetted by -557:
01 [c41c9f5a] (00/48) No match (V2 was not tested)
02 b362081 (00/48) No match
03 [37342836] (00/50) No match
04 [73c01fcf] (00/49) No match
05 [c3672243] (00/47) No match
06 [02a8a6ba] (00/48) No match
07 [0f2cb5cf] (00/49) No match
08 [569db6da] (00/48) No match
09 [5b3c50fc] (00/47) No match
10 [41d58048] (00/48) No match
11 [49a0736b] (00/47) No match
12 [4339d2c9] (00/48) No match
13 [5834cd72] (00/48) No match
14 [cfcfeb52] (00/48) No match
15 [37751ff3] (00/48) No match
16 fe442b4 (00/48) No match
17 [f46d1083] (00/49) No match
18 [116f6166] (00/48) No match
19 [439f2879] (00/48) No match
20 [68dd488b] (00/48) No match

Track Peak [ CRC32 ] [W/O NULL]
-- 100,0 [07BE6933] [74733B40]
01 98,9 [DA50E248] [1A2D5CD2]
02 98,2 [05911907] [A9543229]
03 98,8 [C86716CA] [8BDC33BF]
04 100,0 [C6D338F0] [F3B91A0E]
05 99,5 [02CEAECF] [C8CE692A]
06 96,1 [5281F723] [F6FC517B]
07 97,8 [45D10C06] [4A99178D]
08 99,2 [0B384D85] [824B1F39]
09 98,4 [EEE07926] [76010949]
10 100,0 [AAA859C7] [E6157185]
11 98,6 [04E1987E] [C8C4060A]
12 98,0 [020247AC] [FDA7C9B2]
13 98,0 [FEFF8D1C] [57D043CD]
14 100,0 [E132FDDD] [7A91887D]
15 98,9 [99B80756] [498F76B6]
16 99,1 [D41DFE45] [6623FDFD]
17 98,3 [77261319] [9166DD19]
18 100,0 [ECAD18AD] 4B47320
19 97,9 [D515DCA1] [670A5D90]
20 98,6 [6B3280D7] [2DE29367]

foobar2000 1.2 / Dynamic Range Meter 1.1.1
log date: 2015-08-30 16:06:50

Analyzed: Billie Jo Spears / Best Country Album in the World... Ever, Disc 1 (1) Bobbie Genry & Glen Campbell / Best Country Album in the World... Ever, Disc 1 (2) Bobbie Gentry / Best Country Album in the World... Ever, Disc 1 (3) Charlie Rich / Best Country Album in the World... Ever, Disc 1 (4) Crystal Galye / Best Country Album in the World... Ever, Disc 1 (5) Dolly Parton / Best Country Album in the World... Ever, Disc 1 (6) Don McLean / Best Country Album in the World... Ever, Disc 1 (7) Don Williams / Best Country Album in the World... Ever, Disc 1 (8) Dr Hook / Best Country Album in the World... Ever, Disc 1 (9) Glen Campbell / Best Country Album in the World... Ever, Disc 1 (10) Jim Reeves / Best Country Album in the World... Ever, Disc 1 (11) Juice Newton / Best Country Album in the World... Ever, Disc 1 (12) Kenny Rogers / Best Country Album in the World... Ever, Disc 1 (13) Lee Greenwood / Best Country Album in the World... Ever, Disc 1 (14) Lynn Anderson / Best Country Album in the World... Ever, Disc 1 (15) Olivia Newton John / Best Country Album in the World... Ever, Disc 1 (16) Patsy Cline / Best Country Album in the World... Ever, Disc 1 (17) Rita Coolidge / Best Country Album in the World... Ever, Disc 1 (18) Skeeter Davis / Best Country Album in the World... Ever, Disc 1 (19) Tammy Wynette / Best Country Album in the World... Ever, Disc 1 (20)

DR Peak RMS Duration Track

DR12 -0.04 dB -14.23 dB 3:31 05-Blanket on the Ground
DR9 0.00 dB -10.03 dB 2:33 14-All I Have to Do Is Dream
DR12 -0.14 dB -14.99 dB 4:15 09-Ode to Billy Joe
DR12 -0.06 dB -15.16 dB 2:38 08-The Most Beautiful Girl
DR12 -0.18 dB -14.62 dB 2:32 13-Don't It Make My Brown Eyes Blue
DR10 -0.15 dB -12.28 dB 2:38 02-Jolene
DR12 -0.18 dB -15.54 dB 3:41 19-Crying
DR15 -0.19 dB -17.55 dB 3:21 07-I Recall a Gypsy Woman
DR11 -0.10 dB -13.81 dB 2:56 03-When You're in Love with a Beautiful Woman
DR13 -0.09 dB -14.99 dB 3:15 01-Rhinestone Cowboy
DR9 -0.17 dB -11.20 dB 2:45 12-I Love You Because
DR11 -0.08 dB -15.07 dB 4:07 16-Angel of the Morning
DR13 -0.34 dB -15.24 dB 4:21 06-Coward of the Country
DR12 -0.09 dB -16.63 dB 3:56 15-The Wind Beneath My Wings
DR12 0.00 dB -13.13 dB 2:53 04-Rose Garden
DR10 -0.15 dB -12.91 dB 3:16 17-Banks of the Ohio
DR12 -0.12 dB -14.50 dB 2:44 11-Crazy
DR9 0.00 dB -11.45 dB 3:34 18-We're All Alone
DR10 -0.12 dB -11.62 dB 2:36 20-The End of the World
DR11 0.00 dB -13.09 dB 2:41 10-Stand by Your Man

Number of tracks: 20
Official DR value: DR11

Samplerate: 44100 Hz
Channels: 2
Bits per sample: 16
Bitrate: 837 kbps
Codec: FLAC

X Lossless Decoder version 20140504 (147.0)

XLD extraction logfile from 2014-08-29 05:57:34 +0400

Various Artists / Best Country Album in the World... Ever, Disc 2

Used drive : PIONEER BD-RW BDR-207M (revision 1.21)
Media type : Pressed CD

Ripper mode : CDParanoia III 10.2
Disable audio cache : OK for the drive with a cache less than 2750KiB
Make use of C2 pointers : NO
Read offset correction : 667
Max retry count : 20
Gap status : Analyzed, Appended

TOC of the extracted CD
Track | Start | Length | Start sector | End sector
--1 | 00:00:33 | 03:24:25 | 33 | 15357 2 | 03:24:58 | 03:35:25 | 15358 | 31507 3 | 07:00:08 | 02:01:30 | 31508 | 40612 4 | 09:01:38 | 03:58:20 | 40613 | 58482 5 | 12:59:58 | 02:34:72 | 58483 | 70104 6 | 15:34:55 | 02:52:18 | 70105 | 83022 7 | 18:26:73 | 02:27:02 | 83023 | 94049 8 | 20:54:00 | 03:32:55 | 94050 | 110004 9 | 24:26:55 | 04:10:05 | 110005 | 128759
10 | 28:36:60 | 03:01:48 | 128760 | 142382
11 | 31:38:33 | 03:05:57 | 142383 | 156314
12 | 34:44:15 | 04:11:68 | 156315 | 175207
13 | 38:56:08 | 02:49:05 | 175208 | 187887
14 | 41:45:13 | 02:52:42 | 187888 | 200829
15 | 44:37:55 | 03:34:73 | 200830 | 216952
16 | 48:12:53 | 02:42:47 | 216953 | 229149
17 | 50:55:25 | 02:46:63 | 229150 | 241662
18 | 53:42:13 | 04:19:40 | 241663 | 261127
19 | 58:01:53 | 03:02:07 | 261128 | 274784
20 | 61:03:60 | 03:30:70 | 274785 | 290604

List of alternate offset correction values# | Absolute | Relative | Confidence
1 | 394 | -273 | 2

AccurateRip Summary (DiscID: 002de94e-02a337f4-240f2214)
Track 01 : OK (v1+v2, confidence 19/47)
Track 02 : OK (v1+v2, confidence 18/46)
Track 03 : OK (v1+v2, confidence 18/46)
Track 04 : OK (v1+v2, confidence 17/45)
Track 05 : OK (v1+v2, confidence 18/47)
Track 06 : OK (v1+v2, confidence 18/45)
Track 07 : OK (v1+v2, confidence 18/47)
Track 08 : OK (v1+v2, confidence 18/45)
Track 09 : OK (v1+v2, confidence 18/46)
Track 10 : OK (v1+v2, confidence 18/46)
Track 11 : OK (v1+v2, confidence 18/45)
Track 12 : OK (v1+v2, confidence 18/45)
Track 13 : OK (v1+v2, confidence 18/46)
Track 14 : OK (v1+v2, confidence 18/46)
Track 15 : OK (v1+v2, confidence 17/45)
Track 16 : OK (v1+v2, confidence 18/45)
Track 17 : OK (v1+v2, confidence 18/46)
Track 18 : OK (v1+v2, confidence 18/46)
Track 19 : OK (v1+v2, confidence 17/45)
Track 20 : OK (v1+v2, confidence 18/46)->All tracks accurately ripped.

All Tracks
Album gain : -5.68 dB
Peak : 1.000000
StatisticsRead error : 0Skipped (treated as error) : 0Edge jitter error (maybe fixed) : 0Atom jitter error (maybe fixed) : 0Drift error (maybe fixed) : 0Dropped bytes error (maybe fixed) : 0Duplicated bytes error (maybe fixed) : 0

Track 01
Filename : /01 Billy Ray Cyrus - Achy Breaky Heart.flac
Pre-gap length : 00:02:33 Track gain : -5.25 dB
Peak : 1.000000
CRC32 hash (test run) : 7E095874
CRC32 hash : 7E095874
CRC32 hash (skip zero) : BBCA9123
AccurateRip v1 signature : E3AD4551
AccurateRip v2 signature : 2514CFF7->Accurately ripped (v1+v2, confidence 10+9/47)
StatisticsRead error : 0Skipped (treated as error) : 0Edge jitter error (maybe fixed) : 0Atom jitter error (maybe fixed) : 0Drift error (maybe fixed) : 0Dropped bytes error (maybe fixed) : 0Duplicated bytes error (maybe fixed) : 0

Track 02
Filename : /02 The Charlie Daniels Band - The Devil Went Down to Georgia.flac
Pre-gap length : 00:00:03 Track gain : -5.21 dB
Peak : 0.981964
CRC32 hash (test run) : 9E479908
CRC32 hash : 9E479908
CRC32 hash (skip zero) : 5A2F1AC8
AccurateRip v1 signature : 70D22EA4
AccurateRip v2 signature : BF648005->Accurately ripped (v1+v2, confidence 10+8/46)
StatisticsRead error : 0Skipped (treated as error) : 0Edge jitter error (maybe fixed) : 0Atom jitter error (maybe fixed) : 0Drift error (maybe fixed) : 0Dropped bytes error (maybe fixed) : 0Duplicated bytes error (maybe fixed) : 0

Track 03
Filename : /03 Johnnie Allan - The Promised Land.flac
Pre-gap length : 00:00:03 Track gain : -7.10 dB
Peak : 0.936310
CRC32 hash (test run) : E9AA1780
CRC32 hash : E9AA1780
CRC32 hash (skip zero) : 1F40F0E0
AccurateRip v1 signature : 9BC14279
AccurateRip v2 signature : 56B89CFF->Accurately ripped (v1+v2, confidence 10+8/46)
StatisticsRead error : 0Skipped (treated as error) : 0Edge jitter error (maybe fixed) : 0Atom jitter error (maybe fixed) : 0Drift error (maybe fixed) : 0Dropped bytes error (maybe fixed) : 0Duplicated bytes error (maybe fixed) : 0

Track 04
Filename : /04 Billy Swan - I Can Help.flac
Pre-gap length : 00:00:10 Track gain : -5.60 dB
Peak : 0.989899
CRC32 hash (test run) : C488E693
CRC32 hash : C488E693
CRC32 hash (skip zero) : 87EA3B96
AccurateRip v1 signature : E49FD0FF
AccurateRip v2 signature : 46F8B5F8->Accurately ripped (v1+v2, confidence 9+8/45)
StatisticsRead error : 0Skipped (treated as error) : 0Edge jitter error (maybe fixed) : 0Atom jitter error (maybe fixed) : 0Drift error (maybe fixed) : 0Dropped bytes error (maybe fixed) : 0Duplicated bytes error (maybe fixed) : 0

Track 05
Filename : /05 Johnny Cash - Ring of Fire.flac
Pre-gap length : 00:00:03 Track gain : -5.63 dB
Peak : 0.977295
CRC32 hash (test run) : 399B3913
CRC32 hash : 399B3913
CRC32 hash (skip zero) : 336D8088
AccurateRip v1 signature : BD8E551E
AccurateRip v2 signature : 1E686F8C->Accurately ripped (v1+v2, confidence 10+8/47)
StatisticsRead error : 0Skipped (treated as error) : 0Edge jitter error (maybe fixed) : 0Atom jitter error (maybe fixed) : 0Drift error (maybe fixed) : 0Dropped bytes error (maybe fixed) : 0Duplicated bytes error (maybe fixed) : 0

Track 06
Filename : /06 Bobbie Gentry - I'll Never Fall in Love Again.flac
Pre-gap length : 00:00:65 Track gain : -4.95 dB
Peak : 1.000000
CRC32 hash (test run) : 83FC4C0F
CRC32 hash : 83FC4C0F
CRC32 hash (skip zero) : 568150CC
AccurateRip v1 signature : 90ECF74C
AccurateRip v2 signature : E43F540C->Accurately ripped (v1+v2, confidence 10+8/45)
StatisticsRead error : 0Skipped (treated as error) : 0Edge jitter error (maybe fixed) : 0Atom jitter error (maybe fixed) : 0Drift error (maybe fixed) : 0Dropped bytes error (maybe fixed) : 0Duplicated bytes error (maybe fixed) : 0

Track 07
Filename : /07 Roger Miller - King of the Road.flac
Pre-gap length : 00:00:60 Track gain : -6.82 dB
Peak : 1.000000
CRC32 hash (test run) : 4E5AB51B
CRC32 hash : 4E5AB51B
CRC32 hash (skip zero) : E724EB4E
AccurateRip v1 signature : C68BCDD1
AccurateRip v2 signature : 0903A5F3->Accurately ripped (v1+v2, confidence 10+8/47)
StatisticsRead error : 0Skipped (treated as error) : 0Edge jitter error (maybe fixed) : 0Atom jitter error (maybe fixed) : 0Drift error (maybe fixed) : 0Dropped bytes error (maybe fixed) : 0Duplicated bytes error (maybe fixed) : 0

Track 08
Filename : /08 Joe South - Games People Play.flac
Pre-gap length : 00:00:30 Track gain : -6.50 dB
Peak : 0.995972
CRC32 hash (test run) : 5B83AD97
CRC32 hash : 5B83AD97
CRC32 hash (skip zero) : 70D4FFB0
AccurateRip v1 signature : 9DA7EA1E
AccurateRip v2 signature : 0F9C2659->Accurately ripped (v1+v2, confidence 10+8/45)
StatisticsRead error : 0Skipped (treated as error) : 0Edge jitter error (maybe fixed) : 0Atom jitter error (maybe fixed) : 0Drift error (maybe fixed) : 0Dropped bytes error (maybe fixed) : 0Duplicated bytes error (maybe fixed) : 0

Track 09
Filename : /09 Jimmy Buffet - Margaritaville.flac
Pre-gap length : 00:00:07 Track gain : -4.45 dB
Peak : 1.000000
CRC32 hash (test run) : 9C42F8ED
CRC32 hash : 9C42F8ED
CRC32 hash (skip zero) : 0BA2B09F
AccurateRip v1 signature : 720B89CB
AccurateRip v2 signature : DE9D143D->Accurately ripped (v1+v2, confidence 10+8/46)
StatisticsRead error : 0Skipped (treated as error) : 0Edge jitter error (maybe fixed) : 0Atom jitter error (maybe fixed) : 0Drift error (maybe fixed) : 0Dropped bytes error (maybe fixed) : 0Duplicated bytes error (maybe fixed) : 0

Track 10
Filename : /10 Glen Campbell - Wichita Lineman.flac
Pre-gap length : 00:00:25 Track gain : -5.86 dB
Peak : 0.985474
CRC32 hash (test run) : 9192FFD4
CRC32 hash : 9192FFD4
CRC32 hash (skip zero) : 479212EF
AccurateRip v1 signature : EA60A47A
AccurateRip v2 signature : 96A61816->Accurately ripped (v1+v2, confidence 10+8/46)
StatisticsRead error : 0Skipped (treated as error) : 0Edge jitter error (maybe fixed) : 0Atom jitter error (maybe fixed) : 0Drift error (maybe fixed) : 0Dropped bytes error (maybe fixed) : 0Duplicated bytes error (maybe fixed) : 0

Track 11
Filename : /11 Dolly Parton - I Will Always Love You.flac
Pre-gap length : 00:00:35 Track gain : -6.78 dB
Peak : 0.993896
CRC32 hash (test run) : E8E26E7E
CRC32 hash : E8E26E7E
CRC32 hash (skip zero) : 3EFB58A7
AccurateRip v1 signature : 070D19BB
AccurateRip v2 signature : DE527F17->Accurately ripped (v1+v2, confidence 10+8/45)
StatisticsRead error : 0Skipped (treated as error) : 0Edge jitter error (maybe fixed) : 0Atom jitter error (maybe fixed) : 0Drift error (maybe fixed) : 0Dropped bytes error (maybe fixed) : 0Duplicated bytes error (maybe fixed) : 0

Track 12
Filename :/12 Nanci Griffith - From a Distance.flac
Pre-gap length : 00:00:70 Track gain : -5.16 dB
Peak : 0.983948
CRC32 hash (test run) : 93DC0488
CRC32 hash : 93DC0488
CRC32 hash (skip zero) : 8A54266D
AccurateRip v1 signature : 3AF931EF
AccurateRip v2 signature : C0890EF2->Accurately ripped (v1+v2, confidence 10+8/45)
StatisticsRead error : 0Skipped (treated as error) : 0Edge jitter error (maybe fixed) : 0Atom jitter error (maybe fixed) : 0Drift error (maybe fixed) : 0Dropped bytes error (maybe fixed) : 0Duplicated bytes error (maybe fixed) : 0

Track 13
Filename : /13 Patsy Cline - I Fall to Pieces.flac
Pre-gap length : 00:01:05 Track gain : -5.80 dB
Peak : 0.986877
CRC32 hash (test run) : 1E32C20F
CRC32 hash : 1E32C20F
CRC32 hash (skip zero) : 10FBA0A2
AccurateRip v1 signature : 504D96AD
AccurateRip v2 signature : F33B7825->Accurately ripped (v1+v2, confidence 10+8/46)
StatisticsRead error : 0Skipped (treated as error) : 0Edge jitter error (maybe fixed) : 0Atom jitter error (maybe fixed) : 0Drift error (maybe fixed) : 0Dropped bytes error (maybe fixed) : 0Duplicated bytes error (maybe fixed) : 0

Track 14
Filename : /14 Dr. Hook - A Little Bit More.flac
Pre-gap length : 00:00:38 Track gain : -4.63 dB
Peak : 1.000000
CRC32 hash (test run) : 0898CD39
CRC32 hash : 0898CD39
CRC32 hash (skip zero) : F2C1FF13
AccurateRip v1 signature : D38CFF4C
AccurateRip v2 signature : C7CF4D9D->Accurately ripped (v1+v2, confidence 10+8/46)
StatisticsRead error : 0Skipped (treated as error) : 0Edge jitter error (maybe fixed) : 0Atom jitter error (maybe fixed) : 0Drift error (maybe fixed) : 0Dropped bytes error (maybe fixed) : 0Duplicated bytes error (maybe fixed) : 0

Track 15
Filename : /15 Kenny Rogers - Lucille.flac
Pre-gap length : 00:00:27 Track gain : -5.77 dB
Peak : 1.000000
CRC32 hash (test run) : CDF67FE9
CRC32 hash : CDF67FE9
CRC32 hash (skip zero) : 42CC36A1
AccurateRip v1 signature : CB6F28F5
AccurateRip v2 signature : 89AEBCF5->Accurately ripped (v1+v2, confidence 9+8/45)
StatisticsRead error : 0Skipped (treated as error) : 0Edge jitter error (maybe fixed) : 0Atom jitter error (maybe fixed) : 0Drift error (maybe fixed) : 0Dropped bytes error (maybe fixed) : 0Duplicated bytes error (maybe fixed) : 0

Track 16
Filename : /16 Billie Jo Spears - What I've Got in Mind.flac
Pre-gap length : 00:00:30 Track gain : -4.89 dB
Peak : 0.988037
CRC32 hash (test run) : 008C4BF6
CRC32 hash : 008C4BF6
CRC32 hash (skip zero) : 3EE5E780
AccurateRip v1 signature : DADC555D
AccurateRip v2 signature : 64C7B984->Accurately ripped (v1+v2, confidence 10+8/45)
StatisticsRead error : 0Skipped (treated as error) : 0Edge jitter error (maybe fixed) : 0Atom jitter error (maybe fixed) : 0Drift error (maybe fixed) : 0Dropped bytes error (maybe fixed) : 0Duplicated bytes error (maybe fixed) : 0

Track 17
Filename : /17 Roy Orbison - It's Over.flac
Pre-gap length : 00:00:02 Track gain : -6.21 dB
Peak : 1.000000
CRC32 hash (test run) : 854DD2E7
CRC32 hash : 854DD2E7
CRC32 hash (skip zero) : 5B5239E3
AccurateRip v1 signature : 6E38004F
AccurateRip v2 signature : 177B75EE->Accurately ripped (v1+v2, confidence 10+8/46)
StatisticsRead error : 0Skipped (treated as error) : 0Edge jitter error (maybe fixed) : 0Atom jitter error (maybe fixed) : 0Drift error (maybe fixed) : 0Dropped bytes error (maybe fixed) : 0Duplicated bytes error (maybe fixed) : 0

Track 18
Filename : /18 Kris Kristofferson - Me & Bobby McGee.flac
Pre-gap length : 00:00:13 Track gain : -4.21 dB
Peak : 1.000000
CRC32 hash (test run) : A4354B5E
CRC32 hash : A4354B5E
CRC32 hash (skip zero) : BB51F603
AccurateRip v1 signature : 97C8C621
AccurateRip v2 signature : 7533C24F->Accurately ripped (v1+v2, confidence 10+8/46)
StatisticsRead error : 0Skipped (treated as error) : 0Edge jitter error (maybe fixed) : 0Atom jitter error (maybe fixed) : 0Drift error (maybe fixed) : 0Dropped bytes error (maybe fixed) : 0Duplicated bytes error (maybe fixed) : 0

Track 19
Filename : /19 Willie Nelson - Funny How Times Slip Away.flac
Pre-gap length : 00:00:03 Track gain : -5.55 dB
Peak : 0.992523
CRC32 hash (test run) : 664C8B7C
CRC32 hash : 664C8B7C
CRC32 hash (skip zero) : 8B61245E
AccurateRip v1 signature : 6A813D96
AccurateRip v2 signature : EA66A9FA->Accurately ripped (v1+v2, confidence 9+8/45)
StatisticsRead error : 0Skipped (treated as error) : 0Edge jitter error (maybe fixed) : 0Atom jitter error (maybe fixed) : 0Drift error (maybe fixed) : 0Dropped bytes error (maybe fixed) : 0Duplicated bytes error (maybe fixed) : 0

Track 20
Filename : /20 Billy Ray Cyrus - The Night They Drove Old Dixie Down.flac
Pre-gap length : 00:00:55 Track gain : -4.92 dB
Peak : 1.000000
CRC32 hash (test run) : E5B26A20
CRC32 hash : E5B26A20
CRC32 hash (skip zero) : DB82D35C
AccurateRip v1 signature : B79DA0AE
AccurateRip v2 signature : 5AC14F2F->Accurately ripped (v1+v2, confidence 10+8/46)
StatisticsRead error : 0Skipped (treated as error) : 0Edge jitter error (maybe fixed) : 0Atom jitter error (maybe fixed) : 0Drift error (maybe fixed) : 0Dropped bytes error (maybe fixed) : 0Duplicated bytes error (maybe fixed) : 0

No errors occurred

End of status report

[CUETools log; Date: 30.08.2015 14:56:46; Version: 2.1.4]
Pregap length 00:00:33.
[CTDB TOCID: xeKbjjc9ezPZiDp7npvExJSi9rw-] found.
Track | CTDB Status
1 | (5/5) Accurately ripped
2 | (5/5) Accurately ripped
3 | (5/5) Accurately ripped
4 | (5/5) Accurately ripped
5 | (5/5) Accurately ripped
6 | (5/5) Accurately ripped
7 | (5/5) Accurately ripped
8 | (5/5) Accurately ripped
9 | (5/5) Accurately ripped
10 | (5/5) Accurately ripped
11 | (5/5) Accurately ripped
12 | (5/5) Accurately ripped
13 | (5/5) Accurately ripped
14 | (5/5) Accurately ripped
15 | (5/5) Accurately ripped
16 | (5/5) Accurately ripped
17 | (5/5) Accurately ripped
18 | (5/5) Accurately ripped
19 | (5/5) Accurately ripped
20 | (5/5) Accurately ripped
[AccurateRip ID: 002de94e-02a337f4-240f2214] found.
Track [ CRC | V2 ] Status
01 [e3ad4551|2514cff7] (10+11/51) Accurately ripped
02 [70d22ea4|bf648005] (10+10/50) Accurately ripped
03 [9bc14279|56b89cff] (10+10/50) Accurately ripped
04 [e49fd0ff|46f8b5f8] (09+10/49) Accurately ripped
05 d8e551e|1e686f8c (10+10/51) Accurately ripped
06 [90ecf74c|e43f540c] (10+10/49) Accurately ripped
07 [c68bcdd1|0903a5f3] (10+10/51) Accurately ripped
08 [9da7ea1e|0f9c2659] (10+10/49) Accurately ripped
09 [720b89cb|de9d143d] (10+10/50) Accurately ripped
10 [ea60a47a|96a61816] (10+10/50) Accurately ripped
11 [070d19bb|de527f17] (10+10/49) Accurately ripped
12 [3af931ef|c0890ef2] (10+10/49) Accurately ripped
13 [504d96ad|f33b7825] (10+10/50) Accurately ripped
14 [d38cff4c|c7cf4d9d] (10+10/50) Accurately ripped
15 [cb6f28f5|89aebcf5] (09+10/49) Accurately ripped
16 [dadc555d|64c7b984] (10+10/49) Accurately ripped
17 [6e38004f|177b75ee] (10+10/50) Accurately ripped
18 [97c8c621|7533c24f] (10+10/50) Accurately ripped
19 [6a813d96|ea66a9fa] (09+10/49) Accurately ripped
20 79da0ae|5ac14f2f (10+10/50) Accurately ripped
Offsetted by -273:
01 [3ca53c58] (02/51) Accurately ripped
02 [fd7007f8] (02/50) Accurately ripped
03 [8637dbbd] (02/50) Accurately ripped
04 [e49a4adc] (02/49) Accurately ripped
05 [e6287083] (02/51) Accurately ripped
06 [8447175c] (02/49) Accurately ripped
07 [082d4430] (02/51) Accurately ripped
08 [3d6f9991] (02/49) Accurately ripped
09 [f0ab6c6a] (02/50) Accurately ripped
10 [4bfeb2f5] (02/50) Accurately ripped
11 [7b57891a] (02/49) Accurately ripped
12 98db97e (02/49) Accurately ripped
13 [cf8eed00] (02/50) Accurately ripped
14 [4f8285b5] (02/50) Accurately ripped
15 [31b7809a] (02/49) Accurately ripped
16 [ef807ee4] (02/49) Accurately ripped
17 [f151233c] (02/50) Accurately ripped
18 [cf791673] (02/50) Accurately ripped
19 [ab98abaa] (02/49) Accurately ripped
20 [6e00a5d0] (02/50) Accurately ripped
Offsetted by -2916:
01 [918a154d] (00/51) No match
02 [0e16a274] (00/50) No match
03 e276409 (00/50) No match
04 [d0b39513] (00/49) No match
05 [ad20f852] (00/51) No match
06 [f352c98c] (00/49) No match
07 634be2d (00/51) No match
08 [0d3d854a] (00/49) No match (V2 was not tested)
09 [8abcf327] (00/50) No match
10 [3af344c6] (00/50) No match
11 [38660e17] (00/49) No match
12 [56017d0b] (00/49) No match
13 [a7ff0959] (00/50) No match
14 [f1880310] (00/50) No match
15 [20d38529] (00/49) No match
16 [7ee0af4d] (00/49) No match
17 [2da0ccc7] (00/50) No match
18 1973763 (00/50) No match
19 441bc1c (00/49) No match
20 [f1492376] (00/50) No match
Offsetted by -2765:
01 [3441a23c] (00/51) No match
02 [e031baa8] (00/50) No match
03 [f623aead] (00/50) No match
04 [f8191968] (00/49) No match
05 [4ba728ef] (00/51) No match (V2 was not tested)
06 [f691771c] (00/49) No match
07 [efad7cb4] (00/51) No match
08 [2b0485c5] (00/49) No match
09 [676573ee] (00/50) No match
10 [0f459309] (00/50) No match
11 [dbf1dd9e] (00/49) No match
12 3284d42 (00/49) No match
13 [38597db4] (00/50) No match
14 [d54a4a11] (00/50) No match
15 [eb10c806] (00/49) No match
16 [ccc4bae4] (00/49) No match
17 [c92c6a80] (00/50) No match
18 [e6ff4eeb] (00/50) No match
19 [c33b3592] (00/49) No match
20 [fbfead48] (00/50) No match
Offsetted by -2653:
01 [5165c02c] (00/51) No match
02 [0f87f1e8] (00/50) No match
03 d557ced (00/50) No match
04 [1f7dd3b8] (00/49) No match
05 [cb67efbf] (00/51) No match
06 [1c93e01c] (00/49) No match
07 [a03d4c24] (00/51) No match (V2 was not te
Direct Download

Tags: Country

VA - Best Country Album in the World... Ever! (1994) 2CD Download via Hotfile Rapidshare Fileserve Megaupload & FileSonic, VA - Best Country Album in the World... Ever! (1994) 2CD free torrent downloads included crack, serial, keygen.VA - Best Country Album in the World... Ever! (1994) 2CD Fast Download via Rapidshare Hotfile Fileserve Filesonic Megaupload, VA - Best Country Album in the World... Ever! (1994) 2CD Torrents and Emule Download or anything related.
Leave a Comment
Your Name:
E-Mail:
Add Comments:

Enter Code: