Alvin Lee - Detroit Diesel (1986) [1992, Reissue]

Download Now

Alvin Lee - Detroit Diesel (1986) [1992, Reissue]

Alvin Lee - Detroit Diesel (1986)
EAC Rip | FLAC (Img) + Cue + Log ~ 277 Mb | Scans Included (JPG, 600 dpi) | RAR 5% Recovery
Blues Rock | Castle Communications #CSC 7049

"Detroit Diesel portrays Alvin Lee in more mature and relaxed mood. This collection of 10 tracks includes cuts that range from Blues romps to funky jams. His astonishing technique is still well displayed, but the material gives him a chance to stretch out and groove in a style closer to the Rolling Stones than Ten Years After. An all-star collection of old mates - such as Jon Lord, Joe Brown and George Harrison - make guest appearances, but the heavy duty backing work is carried out by Tim Hinkley (keyboards), Steve Gould (guitar), the late Boz Burrell (bass) and Bryson Graham (drums), who cook up a smokin' rhythm section..."

Wiki | Discogs | All Music
***************

Alvin Lee - Detroit Diesel (1986) [1992, Reissue]

Track List:

01. Detroit Diesel [04:39]
02. Shot In The Dark [04:04]
03. Too Late To Run Foe Cover [03:47]
04. Talk Don't Bother Me [03:37]
05. Ordinary Man [04:00]
06. Heart Of Stone [04:05]
07. She's So Cute [03:17]
08. Back In My Arms Again [03:48]
09. Don't Want To Fight [04:25]
10. Let's Go [03:24]

Exact Audio Copy V1.0 beta 1 from 15. November 2010

EAC extraction logfile from 31. October 2014, 3:00

Alvin Lee / Detroit Diesel

Used drive : MATSHITADVD-RAM UJ8A0AS Adapter: 0 ID: 1

Read mode : Secure
Utilize accurate stream : Yes
Defeat audio cache : Yes
Make use of C2 pointers : No

Read offset correction

: 102
Overread into Lead-In and Lead-Out : No
Fill up missing offset samples with silence : Yes
Delete leading and trailing silent blocks : No
Null samples used in CRC calculations : Yes
Used interface
: Native Win32 interface for Win NT & 2000

Used output format : Internal WAV Routines
Sample format : 44.100 Hz; 16 Bit; Stereo

TOC of the extracted CD Track | Start | Length | Start sector | End sector
--1 | 0:00.00 | 4:38.55 | 0 | 20904 2 | 4:38.55 | 4:04.00 | 20905 | 39204 3 | 8:42.55 | 3:47.00 | 39205 | 56229 4 | 12:29.55 | 3:37.00 | 56230 | 72504 5 | 16:06.55 | 4:00.00 | 72505 | 90504 6 | 20:06.55 | 4:05.00 | 90505 | 108879 7 | 24:11.55 | 3:17.00 | 108880 | 123654 8 | 27:28.55 | 3:48.00 | 123655 | 140754 9 | 31:16.55 | 4:25.00 | 140755 | 160629
10 | 35:41.55 | 3:24.00 | 160630 | 175929

Range status and errors

Selected range Filename C:\Users\Alex\Music\Alvin Lee - Detroit Diesel.wav Peak level 99.2 %
Extraction speed 0.1 X
Range quality 100.0 %
Test CRC CFBF095A
Copy CRC CFBF095A
Copy OK

No errors occurred


AccurateRip summary

Track 1 accurately ripped (confidence 2) [D3725F90]
Track 2 accurately ripped (confidence 2) [D2176EE3]
Track 3 accurately ripped (confidence 2) [035E58D9]
Track 4 accurately ripped (confidence 2) [FA4E2ED1]
Track 5 accurately ripped (confidence 2) [23C55EF7]
Track 6 accurately ripped (confidence 2) [6CC0F432]
Track 7 accurately ripped (confidence 2) [14F42E03]
Track 8 accurately ripped (confidence 2) [75D140FC]
Track 9 accurately ripped (confidence 2) [EAAE62A3]
Track 10 accurately ripped (confidence 2) [9B7BC8B6]

All tracks accurately ripped

End of status report

==== Log checksum D58179E9EEB8665F7EE664340B320CE858E95DA14D3416E345A87BA16695FE2E ====

foobar2000 1.2.6 / Dynamic Range Meter 1.1.1
log date: 2015-08-31 12:12:27

Analyzed: Alvin Lee / Detroit Diesel

DR Peak RMS Duration Track

DR12 -0.66 dB -13.97 dB 4:39 01-Detroit Diesel
DR11 -0.95 dB -13.53 dB 4:04 02-Shot In The Dark
DR12 -0.29 dB -13.46 dB 3:47 03-Too Late To Run Foe Cover
DR12 -1.20 dB -15.72 dB 3:37 04-Talk Don't Bother Me
DR12 -0.78 dB -14.40 dB 4:00 05-Ordinary Man
DR11 -0.41 dB -13.36 dB 4:05 06-Heart Of Stone
DR13 -0.07 dB -14.39 dB 3:17 07-She's So Cute
DR12 -1.33 dB -14.74 dB 3:48 08-Back In My Arms Again
DR11 -0.41 dB -13.67 dB 4:25 09-Don't Want To Fight
DR10 -0.81 dB -13.30 dB 3:24 10-Let's Go

Number of tracks: 10
Official DR value: DR12

Samplerate: 44100 Hz
Channels: 2
Bits per sample: 16
Bitrate: 906 kbps
Codec: FLAC

[CUETools log; Date: 31.08.2015 12:12:27; Version: 2.1.5]
[CTDB TOCID: kCxH_bB7JmKopdQu5tFA8pI5rKo-] found.
Track | CTDB Status
1 | (4/5) Accurately ripped
2 | (5/5) Accurately ripped
3 | (5/5) Accurately ripped
4 | (5/5) Accurately ripped
5 | (4/5) Accurately ripped
6 | (5/5) Accurately ripped
7 | (5/5) Accurately ripped
8 | (5/5) Accurately ripped
9 | (5/5) Accurately ripped
10 | (5/5) Accurately ripped
[AccurateRip ID: 000f1810-0077c69a-8109290a] found.
Track [ CRC | V2 ] Status
01 [d3725f90|1c8b490c] (0+3/8) Accurately ripped
02 [d2176ee3|9cfdcc3b] (0+3/7) Accurately ripped
03 [035e58d9|d92945a4] (0+3/8) Accurately ripped
04 [fa4e2ed1|3faf5ae8] (0+3/8) Accurately ripped
05 [23c55ef7|c1050408] (0+3/8) Accurately ripped
06 [6cc0f432|d03d93ce] (0+3/8) Accurately ripped
07 [14f42e03|5328713a] (0+3/8) Accurately ripped
08 [75d140fc|8be422a4] (0+3/8) Accurately ripped
09 [eaae62a3|0ba78f08] (0+3/7) Accurately ripped
10 [9b7bc8b6|a1303c86] (0+3/8) Accurately ripped
Offsetted by -267:
01 [1265ed18] (5/8) Accurately ripped
02 [cdd91d00] (4/7) Accurately ripped
03 [782843fa] (5/8) Accurately ripped
04 [fb590a40] (5/8) Accurately ripped
05 [110ea51b] (5/8) Accurately ripped
06 [e9177f27] (5/8) Accurately ripped
07 [26415e37] (5/8) Accurately ripped
08 [3886771f] (5/8) Accurately ripped
09 [da679d6d] (4/7) Accurately ripped
10 [e3b98792] (5/8) Accurately ripped

Track Peak [ CRC32 ] [W/O NULL] [ LOG ]
-- 99,2 [CFBF095A] [FA185897] CRC32
01 92,6 [FB9E2F92] [AA890B8B]
02 89,6 [F8E44B26] [CA124A37]
03 96,7 [10EFEEED] [4D57349D]
04 87,1 [93F23AC0] [4D0D8A45]
05 91,3 [2C9DE9FA] [87EEC9E7]
06 95,3 [07E963D7] [8FC0B487]
07 99,2 [AFDD4E6B] [7E3FC0C7]
08 85,8 [4A577590] [08EAFDD0]
09 95,3 [8EB39828] C3411E7
10 91,1 [3E7B3E86] [FFB3C513]

Alvin Lee - Detroit Diesel (1986) [1992, Reissue]

Alvin Lee - Detroit Diesel (1986) [1992, Reissue]

All thanks go to alexharvey


DOWNLOAD:
Buy Premium To Support Me & Get Resumable Support & Max Speed


Links are Interchangeable - No Password
Direct Download

Tags: Detroit, Diesel, Reissue

Alvin Lee - Detroit Diesel (1986) [1992, Reissue] Download via Hotfile Rapidshare Fileserve Megaupload & FileSonic, Alvin Lee - Detroit Diesel (1986) [1992, Reissue] free torrent downloads included crack, serial, keygen.Alvin Lee - Detroit Diesel (1986) [1992, Reissue] Fast Download via Rapidshare Hotfile Fileserve Filesonic Megaupload, Alvin Lee - Detroit Diesel (1986) [1992, Reissue] Torrents and Emule Download or anything related.
Leave a Comment
Your Name:
E-Mail:
Add Comments:

Enter Code: