Big Star - Radio City (1974) Remastered Reissue 2009

Download Now

Big Star - Radio City (1974) Remastered Reissue 2009

Big Star - Radio City (1974) Remastered Reissue 2009
EAC | FLAC | Image (Cue&Log) ~ 297 Mb (incl 5%) | Mp3 (CBR320) ~ 108 Mb (incl 5%) | Scans included
Genre: Power Pop, Rock | Label: Concord/Fantasy/Universal | # 0888072315747 | Time: 00:39:02

"Digitally re-mastered and expanded edition of their 1974 sophomore album including one bonus track: 'O My Soul' (Single Mix). Big Star, led by the legendary Alex Chilton (The Box Tops), remains one of the most mythic and influential cult bands in all of Rock 'n' Roll. Bands such as R.E.M., Wilco and the Replacements all cite Big Star as an influence. #1 Record was included in Rolling Stone's 500 Greatest Albums of all-time."

"Largely lacking co-leader Chris Bell, Big Star's second album also lacked something of the pop sweetness (especially the harmonies) of #1 Record. What it possessed was Alex Chilton's urgency (sometimes desperation) on songs that made his case as a genuine rock & roll eccentric. If #1 Record had a certain pop perfection that brought everything together, Radio City was the sound of everything falling apart, which proved at least as compelling.

Review by William Ruhlmann, Allmusic.com
"




Tracklist:

01. O My Soul (05:38)
02. Life Is White (03:17)
03. Way Out West (02:50)
04. What's Going Ahn (02:41)
05. You Get What You Deserve (03:07)
06. Mod Lang (02:45)
07. Back Of A Car (02:46)
08. Daisy Glaze (03:48)
09. She's A Mover (03:13)
10. September Gurls (02:46)
11. Morpha Too (01:28)
12. I'm In Love With A Girl (01:47)
13. O My Soul (Single Mix) (Bonus Track) (02:50)


Exact Audio Copy V0.99 prebeta 5 from 4. May 2009

EAC extraction logfile from 19. March 2011, 7:57

Big Star / Radio City

Used drive : Optiarc DVD RW AD-5240S Adapter: 1 ID: 1

Read mode : Secure
Utilize accurate stream : Yes
Defeat audio cache : Yes
Make use of C2 pointers : No

Read offset correction

: 48
Overread into Lead-In and Lead-Out : No
Fill up missing offset samples with silence : Yes
Delete leading and trailing silent blocks : No
Null samples used in CRC calculations : Yes
Used interface
: Native Win32 interface for Win NT & 2000

Used output format : User Defined Encoder
Selected bitrate : 768 kBit/s
Quality : High
Add ID3 tag : No
Command line compressor : C:\Program Files\Exact Audio Copy\FLAC\FLAC.EXE
Additional command line options : -8 -V %s

TOC of the extracted CD Track | Start | Length | Start sector | End sector
--1 | 0:00.00 | 5:38.06 | 0 | 25355 2 | 5:38.06 | 3:17.73 | 25356 | 40203 3 | 8:56.04 | 2:50.39 | 40204 | 52992 4 | 11:46.43 | 2:41.12 | 52993 | 65079 5 | 14:27.55 | 3:07.58 | 65080 | 79162 6 | 17:35.38 | 2:45.62 | 79163 | 91599 7 | 20:21.25 | 2:46.23 | 91600 | 104072 8 | 23:07.48 | 3:48.63 | 104073 | 121235 9 | 26:56.36 | 3:13.12 | 121236 | 135722
10 | 30:09.48 | 2:46.30 | 135723 | 148202
11 | 32:56.03 | 1:28.11 | 148203 | 154813
12 | 34:24.14 | 1:47.36 | 154814 | 162874
13 | 36:11.50 | 2:50.60 | 162875 | 175684

Range status and errors

Selected range Filename S:\Для торрентов\Big Star - Radio City.wav Peak level 98.8 %
Range quality 100.0 %
Test CRC 872FA179
Copy CRC 872FA179
Copy OK

No errors occurred


AccurateRip summary

Track 1 accurately ripped (confidence 9) [A04D24A8]
Track 2 accurately ripped (confidence 9) [7549DB1B]
Track 3 accurately ripped (confidence 9) 17ED529
Track 4 accurately ripped (confidence 9) [0BFA720C]
Track 5 accurately ripped (confidence 9) [E4B1C1F2]
Track 6 accurately ripped (confidence 9) [C63FE1BF]
Track 7 accurately ripped (confidence 9) [F8E76ED0]
Track 8 accurately ripped (confidence 9) 7ADD8A5
Track 9 accurately ripped (confidence 9) [35C781FE]
Track 10 accurately ripped (confidence 9) [62A82F1B]
Track 11 accurately ripped (confidence 9) [65647FCF]
Track 12 accurately ripped (confidence 9) [193D9585]
Track 13 accurately ripped (confidence 9) [C0AD25E8]

All tracks accurately ripped

End of status report

foobar2000 1.2 / Dynamic Range Meter 1.1.1
log date: 2015-09-01 21:19:07

Analyzed: Big Star / Radio City

DR Peak RMS Duration Track

DR8 -0.10 dB -8.62 dB 5:38 01-O My Soul
DR7 -0.10 dB -8.34 dB 3:18 02-Life Is White
DR7 -0.10 dB -8.38 dB 2:51 03-Way Out West
DR7 -0.10 dB -8.80 dB 2:41 04-What's Going Ahn
DR7 -0.10 dB -9.17 dB 3:08 05-You Get What You Deserve
DR8 -0.10 dB -9.48 dB 2:46 06-Mod Lang
DR8 -0.10 dB -8.38 dB 2:46 07-Back Of A Car
DR8 -0.10 dB -9.50 dB 3:49 08-Daisy Glaze
DR8 -0.10 dB -8.92 dB 3:13 09-She's A Mover
DR7 -0.10 dB -7.78 dB 2:46 10-September Gurls
DR10 -0.10 dB -12.12 dB 1:28 11-Morpha Too
DR11 -0.10 dB -13.24 dB 1:47 12-I'm In Love With A Girl
DR9 -0.10 dB -9.78 dB 2:51 13-O My Soul (Single Mix) (Bonus Track)

Number of tracks: 13
Official DR value: DR8

Samplerate: 44100 Hz
Channels: 2
Bits per sample: 16
Bitrate: 968 kbps
Codec: FLAC

Big Star - Radio City (1974) Remastered Reissue 2009

Big Star - Radio City (1974) Remastered Reissue 2009

All thanks to original releaser - kostya8

Password: designol

DOWNLOAD LINKS:
(Premium Recommended)


All above links are interchangable. No password
Direct Download

Tags: Remastered, Reissue

Big Star - Radio City (1974) Remastered Reissue 2009 Download via Hotfile Rapidshare Fileserve Megaupload & FileSonic, Big Star - Radio City (1974) Remastered Reissue 2009 free torrent downloads included crack, serial, keygen.Big Star - Radio City (1974) Remastered Reissue 2009 Fast Download via Rapidshare Hotfile Fileserve Filesonic Megaupload, Big Star - Radio City (1974) Remastered Reissue 2009 Torrents and Emule Download or anything related.
Leave a Comment
Your Name:
E-Mail:
Add Comments:

Enter Code: