Tony Levin Band - Double Espresso (2002)

Download Now

Tony Levin Band - Double Espresso (2002)

Tony Levin Band - Double Espresso (2002)
Rock | 2cd | EAC Rip | Flac + Cue + Log | covers
Virgin/Narada 72435-42523-2-7 | rel: 2002 | 780Mb

Although bassist Tony Levin has played on countless albums since the early '70s, he did not get around to issuing his first album until the late '90s. Perhaps to make up for lost time, Levin has cranked out solo releases on a consistent basis since his 1996 solo debut, World Diary. 2002 saw the release of his fourth solo outing in six years, the double-live disc Double Espresso.
Credited to "the Tony Levin Band," the album sees Levin joined by synth player Larry Fast, and a pair of guitarists/vocalists, Jesse Gress and Jerry Marotta. Included are renditions of Levin solo tunes, tracks that Levin has played on by other artists, and also non-related covers performed just for the heck of it. Standouts include a cover of Led Zeppelin's "Black Dog" (in which Levin replaces Robert Plant's sex-crazed vocals with his bass, of course), as well as readings of King Crimson's bass showcase "Elephant Talk," Genesis' "Back in NYC," and a few moody Levin solo tracks, including "Silhouette" and "Utopia." If you couldn't have already guessed from any of the exceptional live DVDs by King Crimson or Peter Gabriel that he's appeared on, Double Espresso proves once and for all that Levin has no problem replicating his bass mastery on-stage as a band leader. ~Allmusic

Track listing
cd1:
01. Pieces Of The Sun (7:15)
02. Geronimo (3:28)
03. Silhouette (4:35)
04. Dog One (5:37)
05. Tequila (5:15)
06. Black Dog (5:36)
07. Ooze (4:33)
08. Apollo (8:45)
09. L'Abito della Sposa (4:07)
10. Sleepless (7:02)
~ (56:12)

cd2:
01. Pillar of Fire (7:00)
02. Ever the Sun Will Rise (7:49)
03. Phobos (7:02)
04. The Fifth Man (5:56)
05. Back in N.Y.C. (6:14)
06. Utopia (7:40)
07. Elephant Talk (5:52)
08. Peter Gunn (3:49)
09. Belle (4:28)
~ (55:48)

Personnel
- Larry Fast : synthsizers, bass drum
- Jesse Gress : guitars, vocals
- Tony Levin : bass, cello, Chapman stick, acoustic guitar, lead vocals
- Jerry Marotta : drums, sax, vocals, percussion, acoustic guitar, Funk Finger guitar, lead vocals
- The California Guitar Trio (Bert Lams, Hideyo Moriya, Paul Richards) : acoustic guitars
- Doug Stringer : drums
- Pete Levin : keyboards

Exact Audio Copy V0.99 prebeta 4 from 23. January 2008

EAC extraction logfile from 18. March 2009, 0:13

Tony Levin Band / Double Espresso Disc 1

Used drive : _NEC DVD_RW ND-4571A Adapter: 0 ID: 0

Read mode : Secure
Utilize accurate stream : Yes
Defeat audio cache : Yes
Make use of C2 pointers : No

Read offset correction

: 48
Overread into Lead-In and Lead-Out : No
Fill up missing offset samples with silence : Yes
Delete leading and trailing silent blocks : No
Null samples used in CRC calculations : Yes
Used interface
: Installed external ASPI interface
Gap handling
: Appended to previous track

Used output format : User Defined Encoder
Selected bitrate : 320 kBit/s
Quality : High
Add ID3 tag : No
Command line compressor : C:\Program Files\Exact Audio Copy\Encoders\flac.exe
Additional command line options : -8 -V -T "ARTIST=%a" -T "TITLE=%t" -T "ALBUM=%g" -T "DATE=%y" -T "TRACKNUMBER=%n" -T "TOTALTRACKS=%x" -T "GENRE=%m" -T "ALBUMARTIST=%v" -T "ALBUM ARTIST=%v" -T "COMMENT=EAC V0.99pb4, Secure Mode, Test & Copy, FLAC -8" %s

TOC of the extracted CD Track | Start | Length | Start sector | End sector
--1 | 0:00.00 | 7:15.11 | 0 | 32635 2 | 7:15.11 | 3:27.60 | 32636 | 48220 3 | 10:42.71 | 4:35.35 | 48221 | 68880 4 | 15:18.31 | 5:36.63 | 68881 | 94143 5 | 20:55.19 | 5:15.00 | 94144 | 117768 6 | 26:10.19 | 5:35.43 | 117769 | 142936 7 | 31:45.62 | 4:33.01 | 142937 | 163412 8 | 36:18.63 | 8:44.57 | 163413 | 202769 9 | 45:03.45 | 4:06.54 | 202770 | 221273
10 | 49:10.24 | 7:01.71 | 221274 | 252919

Track 1 Filename H:\LOSSLESS_2\_ROCK_PROG1\Tony Levin Band - Double Espresso (2002) [FLAC]\Disc1 of 2\01 - Pieces Of The Sun.wav Pre-gap length 0:00:02.00 Peak level 92.2 %
Track quality 100.0 %
Test CRC E8CC4CFB
Copy CRC E8CC4CFB
Accurately ripped (confidence 2) BD247F4
Copy OK

Track 2 Filename H:\LOSSLESS_2\_ROCK_PROG1\Tony Levin Band - Double Espresso (2002) [FLAC]\Disc1 of 2\02 - Geronimo.wav Peak level 92.2 %
Track quality 100.0 %
Test CRC 630EA76F
Copy CRC 630EA76F
Accurately ripped (confidence 2) [A56D18CC]
Copy OK

Track 3 Filename H:\LOSSLESS_2\_ROCK_PROG1\Tony Levin Band - Double Espresso (2002) [FLAC]\Disc1 of 2\03 - Silhouette.wav Peak level 91.1 %
Track quality 100.0 %
Test CRC 884DF2A4
Copy CRC 884DF2A4
Accurately ripped (confidence 2) [A8755480]
Copy OK

Track 4 Filename H:\LOSSLESS_2\_ROCK_PROG1\Tony Levin Band - Double Espresso (2002) [FLAC]\Disc1 of 2\04 - Dog One.wav Peak level 91.1 %
Track quality 100.0 %
Test CRC D08B9D60
Copy CRC D08B9D60
Accurately ripped (confidence 2) [FD04B092]
Copy OK

Track 5 Filename H:\LOSSLESS_2\_ROCK_PROG1\Tony Levin Band - Double Espresso (2002) [FLAC]\Disc1 of 2\05 - Tequila.wav Pre-gap length 0:00:00.25 Peak level 90.1 %
Track quality 100.0 %
Test CRC C7A5A96F
Copy CRC C7A5A96F
Accurately ripped (confidence 2) [FAA6DCE1]
Copy OK

Track 6 Filename H:\LOSSLESS_2\_ROCK_PROG1\Tony Levin Band - Double Espresso (2002) [FLAC]\Disc1 of 2\06 - Black Dog.wav Pre-gap length 0:00:00.20 Peak level 92.2 %
Track quality 100.0 %
Test CRC 881517DF
Copy CRC 881517DF
Accurately ripped (confidence 2) [6560E538]
Copy OK

Track 7 Filename H:\LOSSLESS_2\_ROCK_PROG1\Tony Levin Band - Double Espresso (2002) [FLAC]\Disc1 of 2\07 - Ooze.wav Pre-gap length 0:00:00.03 Peak level 91.1 %
Track quality 100.0 %
Test CRC 8F390527
Copy CRC 8F390527
Accurately ripped (confidence 2) [C9FA5B89]
Copy OK

Track 8 Filename H:\LOSSLESS_2\_ROCK_PROG1\Tony Levin Band - Double Espresso (2002) [FLAC]\Disc1 of 2\08 - Apollo.wav Pre-gap length 0:00:00.23 Peak level 92.2 %
Track quality 100.0 %
Test CRC 7CB4A8BB
Copy CRC 7CB4A8BB
Accurately ripped (confidence 2) [5B2C1F3D]
Copy OK

Track 9 Filename H:\LOSSLESS_2\_ROCK_PROG1\Tony Levin Band - Double Espresso (2002) [FLAC]\Disc1 of 2\09 - L'Abito della Sposa.wav Peak level 91.2 %
Track quality 99.9 %
Test CRC 20397F64
Copy CRC 20397F64
Accurately ripped (confidence 2) [7EEB4A83]
Copy OK

Track 10 Filename H:\LOSSLESS_2\_ROCK_PROG1\Tony Levin Band - Double Espresso (2002) [FLAC]\Disc1 of 2\10 - Sleepless.wav Pre-gap length 0:00:00.04 Peak level 93.3 %
Track quality 100.0 %
Test CRC A6F16D8A
Copy CRC A6F16D8A
Accurately ripped (confidence 2) [501DE06A]
Copy OK

All tracks accurately ripped

No errors occurred

End of status report
-
Exact Audio Copy V0.99 prebeta 4 from 23. January 2008

EAC extraction logfile from 18. March 2009, 0:43

Tony Levin Band / Double Espresso Disk 2

Used drive : _NEC DVD_RW ND-4571A Adapter: 0 ID: 0

Read mode : Secure
Utilize accurate stream : Yes
Defeat audio cache : Yes
Make use of C2 pointers : No

Read offset correction

: 48
Overread into Lead-In and Lead-Out : No
Fill up missing offset samples with silence : Yes
Delete leading and trailing silent blocks : No
Null samples used in CRC calculations : Yes
Used interface
: Installed external ASPI interface
Gap handling
: Appended to previous track

Used output format : User Defined Encoder
Selected bitrate : 320 kBit/s
Quality : High
Add ID3 tag : No
Command line compressor : C:\Program Files\Exact Audio Copy\Encoders\flac.exe
Additional command line options : -8 -V -T "ARTIST=%a" -T "TITLE=%t" -T "ALBUM=%g" -T "DATE=%y" -T "TRACKNUMBER=%n" -T "TOTALTRACKS=%x" -T "GENRE=%m" -T "ALBUMARTIST=%v" -T "ALBUM ARTIST=%v" -T "COMMENT=EAC V0.99pb4, Secure Mode, Test & Copy, FLAC -8" %s

TOC of the extracted CD Track | Start | Length | Start sector | End sector
--1 | 0:00.00 | 6:59.40 | 0 | 31464 2 | 6:59.40 | 7:48.60 | 31465 | 66624 3 | 14:48.25 | 7:01.46 | 66625 | 98245 4 | 21:49.71 | 5:56.23 | 98246 | 124968 5 | 27:46.19 | 6:13.63 | 124969 | 153006 6 | 34:00.07 | 7:39.41 | 153007 | 187472 7 | 41:39.48 | 5:51.66 | 187473 | 213863 8 | 47:31.39 | 3:48.38 | 213864 | 231001 9 | 51:20.02 | 4:28.20 | 231002 | 251121

Track 1 Filename H:\LOSSLESS_2\_ROCK_PROG1\Tony Levin Band - Double Espresso (2002) [FLAC]\Disc2 of 2\01 - Pillar of Fire.wav Pre-gap length 0:00:02.00 Peak level 91.1 %
Track quality 100.0 %
Test CRC 7CBF5C9B
Copy CRC 7CBF5C9B
Accurately ripped (confidence 2) [91D66397]
Copy OK

Track 2 Filename H:\LOSSLESS_2\_ROCK_PROG1\Tony Levin Band - Double Espresso (2002) [FLAC]\Disc2 of 2\02 - Ever the Sun Will Rise.wav Peak level 91.2 %
Track quality 100.0 %
Test CRC F18F7973
Copy CRC F18F7973
Accurately ripped (confidence 2) [E86DA7E4]
Copy OK

Track 3 Filename H:\LOSSLESS_2\_ROCK_PROG1\Tony Levin Band - Double Espresso (2002) [FLAC]\Disc2 of 2\03 - Phobos.wav Pre-gap length 0:00:00.21 Peak level 91.2 %
Track quality 100.0 %
Test CRC D7A78805
Copy CRC D7A78805
Accurately ripped (confidence 2) [F62D966E]
Copy OK

Track 4 Filename H:\LOSSLESS_2\_ROCK_PROG1\Tony Levin Band - Double Espresso (2002) [FLAC]\Disc2 of 2\04 - The Fifth Man.wav Pre-gap length 0:00:00.15 Peak level 91.2 %
Track quality 99.9 %
Test CRC 2C6B4FEB
Copy CRC 2C6B4FEB
Accurately ripped (confidence 2) [DCA3635B]
Copy OK

Track 5 Filename H:\LOSSLESS_2\_ROCK_PROG1\Tony Levin Band - Double Espresso (2002) [FLAC]\Disc2 of 2\05 - Back in N.Y.C..wav Pre-gap length 0:00:00.05 Peak level 91.2 %
Track quality 100.0 %
Test CRC 037E5DC7
Copy CRC 037E5DC7
Accurately ripped (confidence 2) [8C5B36EB]
Copy OK

Track 6 Filename H:\LOSSLESS_2\_ROCK_PROG1\Tony Levin Band - Double Espresso (2002) [FLAC]\Disc2 of 2\06 - Utopia.wav Pre-gap length 0:00:00.48 Peak level 90.1 %
Track quality 100.0 %
Test CRC CAAC299C
Copy CRC CAAC299C
Accurately ripped (confidence 2) 9B3A905
Copy OK

Track 7 Filename H:\LOSSLESS_2\_ROCK_PROG1\Tony Levin Band - Double Espresso (2002) [FLAC]\Disc2 of 2\07 - Elephant Talk.wav Peak level 93.3 %
Track quality 100.0 %
Test CRC 1F0B39A3
Copy CRC 1F0B39A3
Accurately ripped (confidence 2) [38FBE4A9]
Copy OK

Track 8 Filename H:\LOSSLESS_2\_ROCK_PROG1\Tony Levin Band - Double Espresso (2002) [FLAC]\Disc2 of 2\08 - Peter Gunn.wav Peak level 91.2 %
Track quality 100.0 %
Test CRC 2E74C126
Copy CRC 2E74C126
Accurately ripped (confidence 2) [37A93AFB]
Copy OK

Track 9 Filename H:\LOSSLESS_2\_ROCK_PROG1\Tony Levin Band - Double Espresso (2002) [FLAC]\Disc2 of 2\09 - Belle.wav Pre-gap length 0:00:00.55 Peak level 91.2 %
Track quality 100.0 %
Test CRC 1184FC48
Copy CRC 1184FC48
Accurately ripped (confidence 2) [D955D41E]
Copy OK

All tracks accurately ripped

No errors occurred

End of status report

[CUETools log; Date: 2015.09.01. 11:16:37; Version: 2.1.5]
[CTDB TOCID: d7NEOtjtFLvALOy1v_W94Upb.Ko-] found.
Track | CTDB Status
1 | (12/12) Accurately ripped
2 | (12/12) Accurately ripped
3 | (12/12) Accurately ripped
4 | (12/12) Accurately ripped
5 | (12/12) Accurately ripped
6 | (12/12) Accurately ripped
7 | (12/12) Accurately ripped
8 | (12/12) Accurately ripped
9 | (12/12) Accurately ripped
10 | (12/12) Accurately ripped
[AccurateRip ID: 001485c5-00a4a62f-830d2c0a] found.
Track [ CRC | V2 ] Status
01 bd247f4|bd2df5f1 (04+04/39) Accurately ripped
02 [a56d18cc|66799ffc] (04+04/39) Accurately ripped
03 [a8755480|aea6409a] (04+04/39) Accurately ripped
04 [fd04b092|a3001474] (04+04/39) Accurately ripped
05 [faa6dce1|2f46d586] (04+04/39) Accurately ripped
06 [6560e538|ad8ad24a] (04+04/39) Accurately ripped
07 [c9fa5b89|8f39e1e3] (04+04/39) Accurately ripped
08 [5b2c1f3d|858d326d] (04+04/39) Accurately ripped
09 [7eeb4a83|0b931ac5] (04+04/39) Accurately ripped
10 [501de06a|3c5ac78b] (04+04/39) Accurately ripped
Offsetted by 5:
01 [e1d7f9f1] (03/39) Accurately ripped
02 62f3048 (03/39) Accurately ripped
03 [12cc71ef] (03/39) Accurately ripped
04 [ebb57671] (03/39) Accurately ripped
05 [30d22cc9] (03/39) Accurately ripped
06 [6323d803] (03/39) Accurately ripped
07 [44f87e29] (03/39) Accurately ripped
08 [39852185] (03/39) Accurately ripped
09 [3aae3150] (03/39) Accurately ripped
10 [1b8c8fb4] (03/39) Accurately ripped
Offsetted by 17:
01 [87094f95] (03/39) Accurately ripped
02 [5769f6eb] (03/39) Accurately ripped
03 [8bf5f4d1] (03/39) Accurately ripped
04 [8f1e514d] (03/39) Accurately ripped
05 [2cf239f4] (03/39) Accurately ripped
06 [eebdef20] (03/39) Accurately ripped
07 [6c2737a9] (03/39) Accurately ripped
08 [21e7dea4] (03/39) Accurately ripped
09 [fd7b5b45] (03/39) Accurately ripped
10 [36fc9acc] (03/39) Accurately ripped
Offsetted by 681:
01 [32b6b67e] (12/39) Accurately ripped
02 [edbabc8a] (12/39) Accurately ripped
03 [993177d5] (12/39) Accurately ripped
04 [5bf6e74e] (12/39) Accurately ripped
05 [303ac68e] (12/39) Accurately ripped
06 [368544ba] (12/39) Accurately ripped
07 [3995faa9] (12/39) Accurately ripped
08 [f3fbd992] (12/39) Accurately ripped
09 [7bca3f4b] (12/39) Accurately ripped
10 [253455fc] (12/39) Accurately ripped

Track Peak [ CRC32 ] [W/O NULL] [ LOG ]
-- 93,3 [EDDD4365] [712B53B1]
01 92,2 [E8CC4CFB] [85B1238D] CRC32
02 92,2 [630EA76F] [0ADB0F2D] CRC32
03 91,1 [884DF2A4] [DBD3B836] CRC32
04 91,1 [D08B9D60] [10BFBCEF] CRC32
05 90,1 [C7A5A96F] [E3DFF1AA] CRC32
06 92,2 [881517DF] [21A1EB59] CRC32
07 91,1 [8F390527] [90F9253D] CRC32
08 92,2 [7CB4A8BB] [388C10FC] CRC32
09 91,2 [20397F64] [3D8BBC35] CRC32
10 93,3 [A6F16D8A] [C3374890] CRC32

[CUETools log; Date: 2015.09.01. 11:17:38; Version: 2.1.5]
[CTDB TOCID: 77iMM5VV1gh2JQ2OkvXkqizmONQ-] found.
Track | CTDB Status
1 | (11/11) Accurately ripped
2 | (11/11) Accurately ripped
3 | (11/11) Accurately ripped
4 | (11/11) Accurately ripped
5 | (11/11) Accurately ripped
6 | (11/11) Accurately ripped
7 | (11/11) Accurately ripped
8 | (11/11) Accurately ripped
9 | (11/11) Accurately ripped
[AccurateRip ID: 0014b7cd-0095b8aa-640d1409] found.
Track [ CRC | V2 ] Status
01 [91d66397|ad18809b] (05+04/40) Accurately ripped
02 [e86da7e4|22ebe0b9] (05+04/41) Accurately ripped
03 [f62d966e|bdcc179d] (05+04/40) Accurately ripped
04 [dca3635b|5ae330e5] (05+04/41) Accurately ripped
05 [8c5b36eb|d4dd59b1] (05+04/41) Accurately ripped
06 9b3a905|d5a14ff6 (05+04/41) Accurately ripped
07 [38fbe4a9|28148f1a] (05+04/41) Accurately ripped
08 [37a93afb|a3337848] (05+04/41) Accurately ripped
09 [d955d41e|15b07f97] (05+04/41) Accurately ripped
Offsetted by -1:
01 8152be4 (03/40) Accurately ripped
02 [4801d60c] (03/41) Accurately ripped
03 [ee2b3638] (03/40) Accurately ripped
04 [9d6fc1fa] (03/41) Accurately ripped
05 f12dff0 (03/41) Accurately ripped
06 [f0a5bdac] (03/41) Accurately ripped
07 [ce360ce0] (03/41) Accurately ripped
08 [975ca327] (03/41) Accurately ripped
09 [052ca3be] (03/41) Accurately ripped
Offsetted by 11:
01 [309172dc] (03/40) Accurately ripped
02 [8283b47e] (03/41) Accurately ripped
03 [65b357da] (03/40) Accurately ripped
04 [3530e5b5] (03/41) Accurately ripped
05 cf43405 (03/41) Accurately ripped
06 [a35b6370] (03/41) Accurately ripped
07 [dc50ae77] (03/41) Accurately ripped
08 [1af7c124] (03/41) Accurately ripped
09 [f71ae83e] (03/41) Accurately ripped
Offsetted by 675:
01 [9db5f66e] (12/40) Accurately ripped
02 [47cc13f3] (13/41) Accurately ripped
03 [01071fca] (12/40) Accurately ripped
04 [037e5d53] (13/41) Accurately ripped
05 [1ef90fcf] (13/41) Accurately ripped
06 [d277fa66] (13/41) Accurately ripped
07 [8b370a18] (13/41) Accurately ripped
08 [44372afd] (13/41) Accurately ripped
09 [41f0613e] (13/41) Accurately ripped

Track Peak [ CRC32 ] [W/O NULL] [ LOG ]
-- 93,3 [1A63BDDC] [4C6EF1A1]
01 91,1 [7CBF5C9B] [170098ED] CRC32
02 91,2 [F18F7973] [2D03A22A] CRC32
03 91,2 [D7A78805] [3F567C73] CRC32
04 91,2 [2C6B4FEB] [36E81E31] CRC32
05 91,2 [037E5DC7] [DA4887C7] CRC32
06 90,1 [CAAC299C] [0BE74C9C] CRC32
07 93,3 [1F0B39A3] CFCDA66 CRC32
08 91,2 [2E74C126] [D6B3D0D9] CRC32
09 91,2 [1184FC48] [C23C2560] CRC32

original uploader unknown, found in my archive

password: asd
DOWNLOAD LINKS
Buy Premium From My Links To Get Resumable Support & Max Speed & To Support Me


Links are Interchangeable - No Password - Single Extraction
Direct Download

Tags: Double, Espresso

Tony Levin Band - Double Espresso (2002) Download via Hotfile Rapidshare Fileserve Megaupload & FileSonic, Tony Levin Band - Double Espresso (2002) free torrent downloads included crack, serial, keygen.Tony Levin Band - Double Espresso (2002) Fast Download via Rapidshare Hotfile Fileserve Filesonic Megaupload, Tony Levin Band - Double Espresso (2002) Torrents and Emule Download or anything related.
Leave a Comment
Your Name:
E-Mail:
Add Comments:

Enter Code: