Essiet Okon Essiet - Shona (2015) {Space Time Records}

Download Now


Essiet Okon Essiet - Shona (2015) {Space Time Records}
Essiet Okon Essiet - Shona (2015) {Space Time Records}
EAC rip (secure mode) | FLAC (tracks)+CUE+LOG -> 479 Mb | MP3 @320 -> 161 Mb
Full Artwork @ 300 dpi (png) -> 41 Mb | 5% repair rar
© 2014, 2015 Space Time Records | BG 1439
Jazz / Contemporary Jazz / Crossover Jazz / Afro Jazz / Bass

"The National Release Date Of Shona Is September 1,2015! New York City, July 30th,2015 - Omaha born and N.Y.C. based bassist Essiet Okon Essiet has set the radio add date of August 31 St. 2015 and the commercial release date of September 1st, 2015 for his amazing debut CD release of Shona on Frances' Space Time Records! To understand the musical diversity of Shona one would need to know about Essiet's background. Essiet's parents moved here from Nigeria, West Africa as his father worked for the US, as well as the Nigerian government and through his youth the family moved often including Europe, Africa and various cities in the US."

Essiet Okon Essiet - Shona (2015) {Space Time Records}


INFO

Personnel:
Essiet Okon Essiet [leader,bass, double bass & vocal on 7]
Manuel Valera [piano & keyboards]
Jeff Tain Watts [drums]
Lionel Loueke [guitar] on 2,4,&5
Rob Scheps [tenor & soprano saxophones]
Baptiste Herbin [alto & soprano saxophones]
Moise Marie [vocal & percussion] on 5
J.B. Butler [guitar] on 2,4,7, & 9

tracklist:
01. Shona (Essiet Okon Essiet) 8:45
02. Ekpokut (Essiet Okon Essiet) 5:30
03. Xangongo (Essiet Okon Essiet) 5:07
04. Brother Nelson (Essiet Okon Essiet) 6:44
05. Courez,Courez Gazelle! (Julian Zaviar) 3:05
06. Itiat (Essiet Okon Essiet) 5:42
07. Enuen (Essiet Okon Essiet) 4:27
08. Splash (Essiet Okon Essiet) 7:56
09. IBM (Essiet Okon Essiet) 7:42
10. Black Nile (Wayne Shorter) 8:18

Exact Audio Copy V1.1 from 23. June 2015

EAC extraction logfile from 1. September 2015, 17:57

Essiet Okon Essiet / Shona

Used drive : ATAPI iHBS112 2 Adapter: 1 ID: 0

Read mode : Secure
Utilize accurate stream : Yes
Defeat audio cache : Yes
Make use of C2 pointers : No

Read offset correction

: 6
Overread into Lead-In and Lead-Out : No
Fill up missing offset samples with silence : Yes
Delete leading and trailing silent blocks : No
Null samples used in CRC calculations : Yes
Used interface
: Native Win32 interface for Win NT & 2000
Gap handling
: Appended to previous track

Used output format : User Defined Encoder
Selected bitrate : 1024 kBit/s
Quality : High
Add ID3 tag : No
Command line compressor : C:\Program Files\Exact Audio Copy\Flac\flac.exe
Additional command line options : -8 -V -T "ARTIST=%artist%" -T "TITLE=%title%" -T "ALBUM=%albumtitle%" -T "DATE=%year%" -T "TRACKNUMBER=%tracknr%" -T "TOTALTRACKS=%numtracks%" -T "GENRE=%genre%" -T "ALBUMARTIST=%albumartist%" -T "ALBUM ARTIST=%albumartist%" -T "COMPOSER=%composer%" -T "PERFORMER=%albuminterpret%" -T "DISCNUMBER=%cdnumber%" -T "TOTALDISCS=%totalcds%" -T "COMMENT=EAC Secure Mode, Test & Copy, AccurateRip, FLAC -8" %source%

TOC of the extracted CD Track | Start | Length | Start sector | End sector
--1 | 0:00.00 | 8:45.32 | 0 | 39406 2 | 8:45.32 | 6:46.17 | 39407 | 69873 3 | 15:31.49 | 5:07.52 | 69874 | 92950 4 | 20:39.26 | 5:30.43 | 92951 | 117743 5 | 26:09.69 | 3:05.34 | 117744 | 131652 6 | 29:15.28 | 5:42.66 | 131653 | 157368 7 | 34:58.19 | 4:29.50 | 157369 | 177593 8 | 39:27.69 | 7:56.21 | 177594 | 213314 9 | 47:24.15 | 7:44.05 | 213315 | 248119
10 | 55:08.20 | 8:28.25 | 248120 | 286244
11 | 63:36.45 | 4:36.02 | 286245 | 306946

Track 1 Filename P:\DL\Essiet Okon Essiet - Shona (2015) [FLAC]\01 - Shona.wav Pre-gap length 0:00:02.00 Peak level 98.8 %
Extraction speed 5.5 X
Track quality 100.0 %
Test CRC F2F829CF
Copy CRC F2F829CF
Track not present in AccurateRip database
Copy OK

Track 2 Filename P:\DL\Essiet Okon Essiet - Shona (2015) [FLAC]\02 - Brother Nelson.wav Peak level 98.8 %
Extraction speed 6.2 X
Track quality 100.0 %
Test CRC FE1AEFFC
Copy CRC FE1AEFFC
Track not present in AccurateRip database
Copy OK

Track 3 Filename P:\DL\Essiet Okon Essiet - Shona (2015) [FLAC]\03 - Xangongo.wav Pre-gap length 0:00:02.01 Peak level 98.8 %
Extraction speed 6.6 X
Track quality 100.0 %
Test CRC 2FC35194
Copy CRC 2FC35194
Track not present in AccurateRip database
Copy OK

Track 4 Filename P:\DL\Essiet Okon Essiet - Shona (2015) [FLAC]\04 - Ekpokut.wav Peak level 98.8 %
Extraction speed 7.1 X
Track quality 100.0 %
Test CRC 17ECD5CA
Copy CRC 17ECD5CA
Track not present in AccurateRip database
Copy OK

Track 5 Filename P:\DL\Essiet Okon Essiet - Shona (2015) [FLAC]\05 - Courez, Courez Gazelle! (Julian Zaviar).wav Peak level 98.8 %
Extraction speed 6.5 X
Track quality 100.0 %
Test CRC 5934B317
Copy CRC 5934B317
Track not present in AccurateRip database
Copy OK

Track 6 Filename P:\DL\Essiet Okon Essiet - Shona (2015) [FLAC]\06 - Itiat.wav Peak level 98.8 %
Extraction speed 7.2 X
Track quality 100.0 %
Test CRC BFEB1DD1
Copy CRC BFEB1DD1
Track not present in AccurateRip database
Copy OK

Track 7 Filename P:\DL\Essiet Okon Essiet - Shona (2015) [FLAC]\07 - Enuen.wav Peak level 98.8 %
Extraction speed 7.7 X
Track quality 100.0 %
Test CRC C6C4A3D2
Copy CRC C6C4A3D2
Track not present in AccurateRip database
Copy OK

Track 8 Filename P:\DL\Essiet Okon Essiet - Shona (2015) [FLAC]\08 - Splash.wav Pre-gap length 0:00:01.98 Peak level 98.8 %
Extraction speed 8.2 X
Track quality 100.0 %
Test CRC D8CDEBAF
Copy CRC D8CDEBAF
Track not present in AccurateRip database
Copy OK

Track 9 Filename P:\DL\Essiet Okon Essiet - Shona (2015) [FLAC]\09 - IBM.wav Peak level 98.8 %
Extraction speed 8.7 X
Track quality 100.0 %
Test CRC EBEB7050
Copy CRC EBEB7050
Track not present in AccurateRip database
Copy OK

Track 10 Filename P:\DL\Essiet Okon Essiet - Shona (2015) [FLAC]\10 - Black Nile (Wayne Shorter).wav Pre-gap length 0:00:02.00 Peak level 98.8 %
Extraction speed 9.8 X
Track quality 100.0 %
Test CRC 8B6F655D
Copy CRC 8B6F655D
Track not present in AccurateRip database
Copy OK

Track 11 Filename P:\DL\Essiet Okon Essiet - Shona (2015) [FLAC]\11 - Hidden track (Enuen instrumental).wav Pre-gap length 0:00:10.00 Peak level 98.8 %
Extraction speed 9.6 X
Track quality 100.0 %
Test CRC C221D2E5
Copy CRC C221D2E5
Track not present in AccurateRip database
Copy OK

None of the tracks are present in the AccurateRip database

No errors occurred

End of status report

- CUETools DB Plugin V2.1.6

[CTDB TOCID: F6XDUQH.SM2cEa.k._aLVVXXa.M-] found
Submit result:
Track | CTDB Status
1 | (1/1) Accurately ripped
2 | (1/1) Accurately ripped
3 | (1/1) Accurately ripped
4 | (1/1) Accurately ripped
5 | (1/1) Accurately ripped
6 | (1/1) Accurately ripped
7 | (1/1) Accurately ripped
8 | (1/1) Accurately ripped
9 | (1/1) Accurately ripped
10 | (1/1) Accurately ripped
11 | (1/1) Accurately ripped

==== Log checksum B6751AAE9A551D710051CB115D244F59223C43549D4587157E8668846EB3A2F1 ====

Essiet Okon Essiet - Shona (2015) {Space Time Records}

Essiet Okon Essiet - Shona (2015) {Space Time Records}


thanks to dtromp...
DOWNLOAD LINKS
Buy Premium From My Links To Get Resumable Support & Max Speed & To Support Me

Rapidgator.net:
http://rapidgator.net/file/7f95d740528d6e537f57cae0cf17f995/wt1tw.essietokonessietshona.part1.rar.html
http://rapidgator.net/file/3bb1dc78421f02f55f66c6e7b944f0ca/wt1tw.essietokonessietshona.part2.rar.html
http://rapidgator.net/file/ef47614a4fee9e8d8f91b05d09433a3f/wt1tw.essietokonessietshona.part3.rar.html
http://rapidgator.net/file/a109354eb6fef9476a47a24e15d08c99/wt1tw.essietokonessietshonaARTWORK.rar.html
http://rapidgator.net/file/daa98b25d0a72c504d6a6ea46a7f24d1/wt1tw.essietokonessietshonaMP.rar.html

Uploaded.net:
http://uploaded.net/file/dn1pbmoj/wt1tw.essietokonessietshona.part1.rar
http://uploaded.net/file/coa3grdw/wt1tw.essietokonessietshona.part2.rar
http://uploaded.net/file/rc74t8ir/wt1tw.essietokonessietshona.part3.rar
http://uploaded.net/file/ohatwvkl/wt1tw.essietokonessietshonaARTWORK.rar
http://uploaded.net/file/vfazdq5q/wt1tw.essietokonessietshonaMP.rar

nitroflare_com:
http://nitroflare.com/view/8B0F523BB5A5F1B/wt1tw.essietokonessietshona.part1.rar
http://nitroflare.com/view/639347668AA2B5B/wt1tw.essietokonessietshona.part2.rar
http://nitroflare.com/view/C66E84F92CBC163/wt1tw.essietokonessietshona.part3.rar
http://nitroflare.com/view/636D1AFDD68037E/wt1tw.essietokonessietshonaARTWORK.rar
http://nitroflare.com/view/24F6A048D90E560/wt1tw.essietokonessietshonaMP.rar

Uploadable.ch:
http://www.uploadable.ch/file/zMSNFcUtDvUX/wt1tw.essietokonessietshona.part1.rar
http://www.uploadable.ch/file/ncYRMNNAjuGP/wt1tw.essietokonessietshona.part2.rar
http://www.uploadable.ch/file/Fbb257ZtDaby/wt1tw.essietokonessietshona.part3.rar
http://www.uploadable.ch/file/D9ABMjNnQGGE/wt1tw.essietokonessietshonaARTWORK.rar
http://www.uploadable.ch/file/gDVrxWGY9Dww/wt1tw.essietokonessietshonaMP.rar

Links are Interchangeable - No Password - Single Extraction
Direct Download

Tags: Essiet, Essiet, Records

Essiet Okon Essiet - Shona (2015) {Space Time Records} Download via Hotfile Rapidshare Fileserve Megaupload & FileSonic, Essiet Okon Essiet - Shona (2015) {Space Time Records} free torrent downloads included crack, serial, keygen.Essiet Okon Essiet - Shona (2015) {Space Time Records} Fast Download via Rapidshare Hotfile Fileserve Filesonic Megaupload, Essiet Okon Essiet - Shona (2015) {Space Time Records} Torrents and Emule Download or anything related.
Leave a Comment
Your Name:
E-Mail:
Add Comments:

Enter Code: