The Stranglers - All Live And All Of The Night (1988) [ORG] *RE-UP

Download Now

The Stranglers - All Live And All Of The Night (1988) [ORG] *RE-UP

The Stranglers - All Live And All Of The Night (1988)
EAC-FLAC Image with CUE & LOG - 419 MB | Full Scans | MP3 CBR 320 Kbps - 143 MB
Punk / New Wave / Pop Rock | TT - 52:16 minutes | Label: Epic Records | Cat. # 469259-2

"allmusic.com says: While not as good as Live X-Cert, the Stranglers live album it bookends, this does have some things to recommend it. First, it was recorded a decade down the line and was able to draw from a wellspring of generally excellent material written between times. Secondly, at this stage of their career, the Stranglers remained just about relevant, and were still a robust live act, though some Stranglers reacted warily to the presence of brass on favorites such as "Down in the Sewer." So, thanks for the live album, but no thanks for the awful packaging, intended to cash in on the success of "All Day and All of the Night." The Stranglers' workmanlike hit version of the Kinks' chestnut is incongruously added to the end of the album."


Tracks:

01. No More Heroes
02. Was It You
03. Down In The Sewer
04. Always The Sun
05. Golden Brown
06. North Winds
07. European Female
08. Strange Little Girl
09. Nice 'N' Sleazy
10. Toiler On The Sea
11. Spain
12. London Lady
13. All Day And All Of The Night

Produced by The Stranglers & Ted Hayton.

More information @ Wikipedia

Exact Audio Copy V0.99 prebeta 4 from 23. January 2008

EAC extraction logfile from 19. April 2009, 1:42

The Stranglers / All Live And All Of The Night

Used drive : ASUS DRW-1608P Adapter: 2 ID: 0

Read mode : Secure
Utilize accurate stream : Yes
Defeat audio cache : Yes
Make use of C2 pointers : No

Read offset correction

: 48
Overread into Lead-In and Lead-Out : No
Fill up missing offset samples with silence : Yes
Delete leading and trailing silent blocks : No
Null samples used in CRC calculations : Yes
Used interface
: Native Win32 interface for Win NT & 2000

Used output format : User Defined Encoder
Selected bitrate : 1024 kBit/s
Quality : High
Add ID3 tag : No
Command line compressor : C:\Program Files (x86)\Exact Audio Copy\Flac\flac.exe
Additional command line options : -5 -V -T "ARTIST=%a" -T "TITLE=%t" -T "ALBUM=%g" -T "DATE=%y" -T "TRACKNUMBER=%n" -T "GENRE=%m" -T "COMMENT=EAC FLAC -5" %s

TOC of the extracted CD Track | Start | Length | Start sector | End sector
--1 | 0:00.32 | 3:49.05 | 32 | 17211 2 | 3:49.37 | 3:41.30 | 17212 | 33816 3 | 7:30.67 | 6:26.18 | 33817 | 62784 4 | 13:57.10 | 4:29.02 | 62785 | 82961 5 | 18:26.12 | 3:36.05 | 82962 | 99166 6 | 22:02.17 | 4:00.08 | 99167 | 117174 7 | 26:02.25 | 3:33.60 | 117175 | 133209 8 | 29:36.10 | 2:50.55 | 133210 | 146014 9 | 32:26.65 | 4:26.22 | 146015 | 165986
10 | 36:53.12 | 6:27.43 | 165987 | 195054
11 | 43:20.55 | 3:46.67 | 195055 | 212071
12 | 47:07.47 | 2:42.58 | 212072 | 224279
13 | 49:50.30 | 2:25.45 | 224280 | 235199

Range status and errors

Selected range Filename F:\The Stranglers 1988\The Stranglers - All Live And All Of The Night.wav Peak level 98.2 %
Range quality 99.9 %
Test CRC 7FF46831
Copy CRC 7FF46831
Copy OK

No errors occurred


AccurateRip summary

Track 1 accurately ripped (confidence 10) [985B79F8]
Track 2 accurately ripped (confidence 10) [0EE52B04]
Track 3 accurately ripped (confidence 10) [3AF5F8D5]
Track 4 accurately ripped (confidence 10) [E58BDF3F]
Track 5 accurately ripped (confidence 10) [29299830]
Track 6 accurately ripped (confidence 10) [031CBE59]
Track 7 accurately ripped (confidence 10) [ACDE827A]
Track 8 accurately ripped (confidence 10) [3F86D10C]
Track 9 accurately ripped (confidence 10) [72A29579]
Track 10 accurately ripped (confidence 10) [CD257921]
Track 11 accurately ripped (confidence 10) [61F842B0]
Track 12 accurately ripped (confidence 10) [6688575A]
Track 13 cannot be verified as accurate (confidence 3) [48189A6F], AccurateRip returned [2A194369]

12 track(s) accurately ripped
1 track(s) could not be verified as accurate

Some tracks could not be verified as accurate

End of status report

Pregap length 00:00:32.
[AccurateRip ID: 001a5229-0105c65e-b70c400d] found.
Track [ CRC ] Status
01 [985b79f8] (24/26) Accurately ripped
02 [0ee52b04] (25/28) Accurately ripped
03 [3af5f8d5] (25/28) Accurately ripped
04 [e58bdf3f] (25/28) Accurately ripped
05 [29299830] (24/27) Accurately ripped
06 [031cbe59] (25/28) Accurately ripped
07 [acde827a] (25/28) Accurately ripped
08 [3f86d10c] (25/28) Accurately ripped
09 [72a29579] (25/27) Accurately ripped
10 [cd257921] (25/27) Accurately ripped
11 [61f842b0] (25/28) Accurately ripped
12 [6688575a] (25/27) Accurately ripped
13 [48189a6f] (19/27) No match but offset
Offsetted by 12:
01 [54317259] (02/26) Accurately ripped
02 d266286 (03/28) Accurately ripped
03 [17e29f3d] (03/28) Accurately ripped
04 [059eadd6] (03/28) Accurately ripped
05 [97878854] (03/27) Accurately ripped
06 [2d810448] (03/28) Accurately ripped
07 [0a8d3231] (03/28) Accurately ripped
08 [532a7ed9] (03/28) Accurately ripped
09 [0ed84ab0] (02/27) Accurately ripped
10 [18cc44ea] (02/27) Accurately ripped
11 [1808acfb] (03/28) Accurately ripped
12 [19006ad7] (02/27) Accurately ripped
13 [1e439958] (06/27) No match but offset

Track Peak [ CRC32 ] [W/O NULL] [ LOG ]
-- 98,2 [7FF46831] [1355AA18] CRC32
01 68,1 [C781EA7A] [A1B52070]
02 68,5 [A8A0D671] [CFE43944]
03 98,2 [9D361109] [00C350B5]
04 70,1 [8CB70DFE] [42A17A6A]
05 61,5 [12AA116E] [03D3E51D]
06 72,9 [3340F937] [311D8C64]
07 60,4 [6EA049A6] [A0A7FE12]
08 74,1 [4D95E2E9] [262AE8BE]
09 72,2 [D807BE2C] [7A4D71F0]
10 89,9 [36D765BC] [D8131AF7]
11 80,6 [CB121868] [65FB5001]
12 66,7 [70D83BD3] [FA181782]
13 71,3 [51ACFD89] [4073E503]

Thanks to bvstudio!
DOWNLOAD LINKS
Buy Premium From My Links To Get Resumable Support & Max Speed & To Support Me


Links are Interchangeable - No Password - Single Extraction
Direct Download

Tags: Stranglers

The Stranglers - All Live And All Of The Night (1988) [ORG] *RE-UP Download via Hotfile Rapidshare Fileserve Megaupload & FileSonic, The Stranglers - All Live And All Of The Night (1988) [ORG] *RE-UP free torrent downloads included crack, serial, keygen.The Stranglers - All Live And All Of The Night (1988) [ORG] *RE-UP Fast Download via Rapidshare Hotfile Fileserve Filesonic Megaupload, The Stranglers - All Live And All Of The Night (1988) [ORG] *RE-UP Torrents and Emule Download or anything related.
Leave a Comment
Your Name:
E-Mail:
Add Comments:

Enter Code: