BBC Legends - Rudolf Kempe, Edith Peinemann: Michael Tippett, Alban Berg, Leos Janacek (2007)

Download Now

BBC Legends - Rudolf Kempe, Edith Peinemann: Michael Tippett, Alban Berg, Leos Janacek (2007)

Michael Tippett - Concerto for Double String Orchestra; Alban Berg - Violin Concerto; Leoš Janáček - Sinfonietta (2007)
Edith Peinemann, violin; BBC Symphony Orchestra; Rudolf Kempe, conductor

EAC | FLAC | Image (Cue&Log) ~ 423 Mb (incl 5%) | Mp3 (CBR320) ~ 214 Mb (incl 5%) | Scans included
Genre: Classical | Label: BBC Music | # BBCL 4215-2 | Time: 01:18:02

"With Kempe at the helm we can be assured of elevated and noble performances. The BBC Legends issue captures him in two concerts given four months apart. The February 1976 concert was given at the Royal Festival Hall and gives us not unexpected fare - Berg - and decidedly unusual repertoire for Kempe in the form of Tippett's Concerto for Double String Orchestra. This positively crackles with rhythmic energy and dynamism, the strings responding with admirable precision and unanimity of attack. The result is a performance of real standing and a precious surviving example of Kempe's small repertoire of British works."

"Memory can sometimes play tricks. I thought it had at the beginning of Tippett's Concerto for Double String Orchestra; the playing seemed just a little less certain than I recall, and the sound is rather dry and distant. The reproduction improves (and the ears adjust) - although the acoustic space seems rather artificial given this is the Royal Festival Hall - and then the performance seems every bit as wonderful as recalled. It was something that I recorded from BBC Radio 3 when broadcast live (on a portable cassette player) and listened to many times - until the tape snapped! This much-hoped-for issue on BBC Legends is, indeed, a treasure.

Rudolf Kempe conducts Tippett's work as the masterpiece it is. He seems utterly convinced by Tippett's invention, craftsmanship and contrapuntal command. Under Kempe the outer movements are vital and detailed, ardent and pulsating, driven but meticulous; Tippett's rhythmic precision and his generously singing lines are superbly melded by Kempe and the BBCSO strings (and the division and interaction between the two orchestras is vividly relayed by the stereo recording). The slow movement, based on a Scottish folksong, has an arching eloquence, Kempe justifying his very slow tempo to moving effect. The finale, quite measured in speed, enjoys rhythmic point and burgeoning euphony, the coda ecstatically broad and intensely delivered.

This release of three great works from the twentieth-century - which were composed not that far apart from each other (the Janáček in 1926, the Berg in 1935 and the Tippett in 1939) - is an absolute triumph. Edith Peinemann (born in 1937 and, Tully Potter tells us in his booklet note, still playing and teaching) brings poise and passion to the solo part, and unvarnished timbres, to Alban Berg's concerto written in "memory of an angel" (the daughter of Walter Gropius and Alma Mahler), a soulful and searching account that appreciates Berg's extraordinary blending of meticulous musical thought and deep emotion. Kempe secures a vivid if not faultless orchestral response, which is both charged and respectful of Berg's almost-obsessive concern for construction and Peinemann's commitment is concentrated and her musicianship observant; all in all, this is a rather special account of Berg's last completed work.

Kempe rounded-off the concert with Brahms's Fourth Symphony (long available on BBC Legends). The disc is completed with Janáček's Sinfonietta, which is not to be confused with a previous Kempe issue on BBC Legends of this work; that was from the Royal Albert Hall Proms while this current version was given in Fairfield Halls, Croydon (as I recall, this was a Sunday evening concert broadcast live on BBC2). Not as pungent or as brazen as some in this music, Kempe nevertheless brings out the interrelationships of the music and its joy and nobility - not unlike Rafael Kubelík, although the latter (on his Deutsche Grammophon recording) is the more ‘urgent' interpreter. Although Kempe can be a little subdued at times, and without Kubelík's relish, his is a discriminating ear, and has an ability to trace rather than bludgeon. The recorded sound, not from a BBC master-tape, is a little blowsy in terms of instrumental positioning, yet Kempe's use of antiphonal violins suggests a reversal of channels (the Tippett and Berg are fine in this respect); but, musically, this is a refreshing view of Janáček's concise blockbuster and an admirable close to a superb release.

Review by Colin Anderson, ClassicalSource.com
"




Tracklist:

Michael TIPPETT (1905-1998)
Concerto for Double String Orchestra
01. I. Allegro con brio (06:08)
02. II. Adagio cantabile (10:31)
03. III. Allegro molto (08:31)

Alban BERG (1885-1935)
Konzert für Violine und Orchester "Dem Andenken eines Engels"
04. I. Andante - Allegretto (11:43)
05. II. Allegro - Adagio (16:55)

Leoš JANÂČEK (1854-1928)
Sinfonietta:
06. I. Allegretto (02:31)
07. II. Andante (06:03)
08. III. Moderato (05:23)
09. IV. Allegretto (02:38)
10. V. Andante con moto (07:34)

Tippett and Berg recorded on 18 February 1976 in the Royal Festival Hall, London;
Janáček recorded on 12 October 1975 in Fairfield Halls, Croydon


Exact Audio Copy V1.0 beta 1 from 15. November 2010

EAC extraction logfile from 18. April 2014, 0:18

Rudolf Kempe / Tippett, Berg & Janacek

Used drive : Optiarc DVD RW AD-7203A Adapter: 4 ID: 1

Read mode : Secure
Utilize accurate stream : Yes
Defeat audio cache : Yes
Make use of C2 pointers : No

Read offset correction

: 48
Overread into Lead-In and Lead-Out : No
Fill up missing offset samples with silence : Yes
Delete leading and trailing silent blocks : No
Null samples used in CRC calculations : Yes
Used interface
: Native Win32 interface for Win NT & 2000

Used output format : User Defined Encoder
Selected bitrate : 128 kBit/s
Quality : High
Add ID3 tag : No
Command line compressor : C:\Program Files\FLAC\flac.exe
Additional command line options : -T "COMMENT=Ripped by GFox" -8 -V %s

TOC of the extracted CD Track | Start | Length | Start sector | End sector
--1 | 0:00.00 | 6:08.32 | 0 | 27631 2 | 6:08.32 | 10:31.47 | 27632 | 75003 3 | 16:40.04 | 8:31.22 | 75004 | 113350 4 | 25:11.26 | 11:43.64 | 113351 | 166139 5 | 36:55.15 | 16:55.63 | 166140 | 242327 6 | 53:51.03 | 2:31.07 | 242328 | 253659 7 | 56:22.10 | 6:03.31 | 253660 | 280915 8 | 62:25.41 | 5:23.08 | 280916 | 305148 9 | 67:48.49 | 2:38.31 | 305149 | 317029
10 | 70:27.05 | 7:34.63 | 317030 | 351142

Range status and errors

Selected range Filename D:\EAC\Rudolf Kempe - Tippett, Berg & Janacek.wav Peak level 100.0 %
Extraction speed 0.3 X
Range quality 100.0 %
Test CRC E14F1A2C
Copy CRC E14F1A2C
Copy OK

No errors occurred


AccurateRip summary

Track 1 accurately ripped (confidence 2) [8E73E69A]
Track 2 accurately ripped (confidence 2) [057EA430]
Track 3 accurately ripped (confidence 2) [8FB9A598]
Track 4 accurately ripped (confidence 2) [4F257D93]
Track 5 accurately ripped (confidence 2) [008E20BF]
Track 6 accurately ripped (confidence 2) [74C16D7F]
Track 7 accurately ripped (confidence 2) [DDD1FF1A]
Track 8 accurately ripped (confidence 2) [CC39A29C]
Track 9 accurately ripped (confidence 2) [5D4FE717]
Track 10 accurately ripped (confidence 2) [F6C4C5B8]

All tracks accurately ripped

End of status report

==== Log checksum C071F26B84B4CCE4A162B95B72250CB612E7B5E2961B510EC86BB206B25B1256 ====

foobar2000 1.2 / Dynamic Range Meter 1.1.1
log date: 2015-09-03 21:00:24

Analyzed: Rudolf Kempe / Tippett, Berg & Janacek

DR Peak RMS Duration Track

DR12 -2.16 dB -19.37 dB 6:08 01-Tippett - Concerto for Double String Orchestra - I. Allegro con brio
DR15 -0.80 dB -23.81 dB 10:32 02-Tippett - Concerto for Double String Orchestra - II. Adagio cantabile
DR12 -3.62 dB -20.11 dB 8:31 03-Tippett - Concerto for Double String Orchestra - III. Allegro molto
DR15 -2.09 dB -24.43 dB 11:44 04-Berg - Violin Concerto - I. Andante - Allegretto
DR17 -0.49 dB -24.58 dB 16:56 05-Berg - Violin Concerto - II. Allegro - Adagio
DR12 -0.73 dB -16.56 dB 2:31 06-Janacek - Sinfonietta - I. Allegretto
DR15 -2.06 dB -23.19 dB 6:03 07-Janacek - Sinfonietta - II. Andante
DR15 -0.69 dB -22.06 dB 5:23 08-Janacek - Sinfonietta - III. Moderato
DR15 -1.60 dB -22.44 dB 2:38 09-Janacek - Sinfonietta - IV. Allegretto
DR12 0.00 dB -17.72 dB 7:35 10-Janacek - Sinfonietta - V. Andante con moto

Number of tracks: 10
Official DR value: DR14

Samplerate: 44100 Hz
Channels: 2
Bits per sample: 16
Bitrate: 676 kbps
Codec: FLAC

BBC Legends - Rudolf Kempe, Edith Peinemann: Michael Tippett, Alban Berg, Leos Janacek (2007)

All thanks to original releaser - GFox
Password: designol

DOWNLOAD LINKS
Buy Premium From My Links To Get Resumable Support & Max Speed & To Support Me


Links are Interchangeable - No Password - Single Extraction
Direct Download

Tags: Legends, Rudolf, Peinemann, Michael, Tippett, Janacek

BBC Legends - Rudolf Kempe, Edith Peinemann: Michael Tippett, Alban Berg, Leos Janacek (2007) Download via Hotfile Rapidshare Fileserve Megaupload & FileSonic, BBC Legends - Rudolf Kempe, Edith Peinemann: Michael Tippett, Alban Berg, Leos Janacek (2007) free torrent downloads included crack, serial, keygen.BBC Legends - Rudolf Kempe, Edith Peinemann: Michael Tippett, Alban Berg, Leos Janacek (2007) Fast Download via Rapidshare Hotfile Fileserve Filesonic Megaupload, BBC Legends - Rudolf Kempe, Edith Peinemann: Michael Tippett, Alban Berg, Leos Janacek (2007) Torrents and Emule Download or anything related.
Leave a Comment
Your Name:
E-Mail:
Add Comments:

Enter Code: