Skinny Puppy - Remission (1984)

Download Now

Skinny Puppy - Remission (1984)

Skinny Puppy - Remission (1984)
Electronic | 1cd | EAC Rip | Flac + Cue + Log | covers
Nettwerk W2-30082 | rel: 1995 | 260Mb

Throbbing Gristle came and went. Cabaret Voltaire furthered TG's grimy rhythmic onslaughts. Even SPK abandoned the cacophonous death noise of earlier records for the allure of the dance floor. But it was Canada's Skinny Puppy that paved the way for guys like Trent Reznor and Ministry. REMISSION, SP's first EP, remains the Puppy's finest hour. The breadth of vision and amazing instrumental prowess of vocalist Nivek Ogre and sound-designer Cevin Key will likely never be transcended.
Though their modus operandi revolved around the darker subjects of this world, Ogre and Key were world-class synthesists and programmers. These multi-talented sound manipulators couched their ruminations about man's shadowy side in mind-bending whorls of haunted rhythm boxes, spooky, galvanizing synths, and various unidentifiable shards of noise. Get past Ogre's hoarse, dying dinosaur of a voice, and you'll find the beat-box banshee thrust of "Glass Houses," the primal industrial techno of "Far Too Frail," and the Kraftwerk-gone-netherworld beats and rippling electronics of "Sleeping Beast." Skinny Puppy was certainly confrontational. But unlike their spawn, Key and Ogre knew how to craft tunes and marry them to the most ingenious of sound patterns. Nettwerk's CD issue of REMISSION augments the EP with additional material. ~Allmusic

Track listing
01. Smothered Hope (5:15)
02. Glass Houses (3:21)
03. Incision (4:42)
04. Far Too Frail (3:43)
05. Film (2:51)
06. Manwhole (1:44)
07. Ice Breaker (2:47)
08. Solvent (4:38)
09. Sleeping Beast (6:01)
10. Glass Out (3:25)
11. ... Brap (1:10)
~ (39:38)

Exact Audio Copy V1.0 beta 1 from 15. November 2010

EAC extraction logfile from 15. March 2011, 21:59

Skinny Puppy / Remission

Used drive : PLEXTOR CD-R PX-240A Adapter: 1 ID: 1

Read mode : Secure
Utilize accurate stream : Yes
Defeat audio cache : Yes
Make use of C2 pointers : No

Read offset correction

: 6
Overread into Lead-In and Lead-Out : No
Fill up missing offset samples with silence : Yes
Delete leading and trailing silent blocks : No
Null samples used in CRC calculations : Yes
Used interface
: Installed external ASPI interface

Used output format : Internal WAV Routines
Sample format : 44.100 Hz; 16 Bit; Stereo

TOC of the extracted CD Track | Start | Length | Start sector | End sector
--1 | 0:00.32 | 5:14.40 | 32 | 23621 2 | 5:14.72 | 3:21.08 | 23622 | 38704 3 | 8:36.05 | 4:41.57 | 38705 | 59836 4 | 13:17.62 | 3:43.25 | 59837 | 76586 5 | 17:01.12 | 2:51.20 | 76587 | 89431 6 | 19:52.32 | 1:44.25 | 89432 | 97256 7 | 21:36.57 | 2:46.50 | 97257 | 109756 8 | 24:23.32 | 4:38.20 | 109757 | 130626 9 | 29:01.52 | 6:01.25 | 130627 | 157726
10 | 35:03.02 | 3:25.08 | 157727 | 173109
11 | 38:28.10 | 1:09.67 | 173110 | 178351

Range status and errors

Selected range Filename Z:\data\mp3\Seeding Archive\Skinny Puppy\1984-Remission\remission.wav Peak level 100.0 %
Extraction speed 0.2 X
Range quality 100.0 %
Test CRC B669950D
Copy CRC B669950D
Copy OK

No errors occurred


AccurateRip summary

Track 1 accurately ripped (confidence 3) [F234AB52]
Track 2 accurately ripped (confidence 3) [533909CB]
Track 3 accurately ripped (confidence 3) [72D35820]
Track 4 accurately ripped (confidence 3) [4E10F8EE]
Track 5 accurately ripped (confidence 3) [806D04A7]
Track 6 accurately ripped (confidence 3) [9E2DE3AF]
Track 7 accurately ripped (confidence 3) [58E67EF2]
Track 8 accurately ripped (confidence 3) [2CCB5FA7]
Track 9 accurately ripped (confidence 3) 8C8892C
Track 10 accurately ripped (confidence 3) [8EFD1876]
Track 11 accurately ripped (confidence 3) [93F18CF4]

All tracks accurately ripped

End of status report

[CUETools log; Date: 2015.09.01. 15:25:40; Version: 2.1.5]
Pregap length 00:00:32.
[CTDB TOCID: BUu3MR1SawfGx4abGWx6JkRFtPc-] found.
Track | CTDB Status
1 | (12/12) Accurately ripped
2 | (12/12) Accurately ripped
3 | (12/12) Accurately ripped
4 | (12/12) Accurately ripped
5 | (12/12) Accurately ripped
6 | (12/12) Accurately ripped
7 | (12/12) Accurately ripped
8 | (12/12) Accurately ripped
9 | (12/12) Accurately ripped
10 | (12/12) Accurately ripped
11 | (12/12) Accurately ripped
[AccurateRip ID: 001151c5-0093ae84-89094a0b] found.
Track [ CRC | V2 ] Status
01 [f234ab52|d7c7fa7e] (02+08/61) Accurately ripped
02 [533909cb|7f90024c] (02+08/61) Accurately ripped
03 [72d35820|d8ba261f] (02+08/61) Accurately ripped
04 [4e10f8ee|7febd22f] (02+08/61) Accurately ripped
05 [806d04a7|1407e491] (02+08/61) Accurately ripped
06 [9e2de3af|ae8ea628] (02+08/61) Accurately ripped
07 [58e67ef2|cf0fff81] (02+08/61) Accurately ripped
08 [2ccb5fa7|15f1f8db] (02+08/61) Accurately ripped
09 8c8892c|46c21665 (02+07/60) Accurately ripped
10 [8efd1876|c4b81556] (02+07/60) Accurately ripped
11 [93f18cf4|509b5e5a] (02+07/60) Accurately ripped
Offsetted by -2716:
01 [f4b8d2a4] (03/61) Accurately ripped
02 [aac5771b] (03/61) Accurately ripped
03 [ff418fff] (03/61) Accurately ripped
04 [322f68b3] (03/61) Accurately ripped
05 [d2a8351c] (03/61) Accurately ripped
06 [49c1d2ca] (03/61) Accurately ripped
07 [d644928a] (03/61) Accurately ripped
08 [7ce709b9] (03/61) Accurately ripped
09 [a2056e6a] (03/60) Accurately ripped
10 [e917f68c] (03/60) Accurately ripped
11 [26a47a90] (03/60) Accurately ripped
Offsetted by -2052:
01 [73c0a648] (11/61) Accurately ripped
02 [0fcfbc8d] (11/61) Accurately ripped
03 [2db0f468] (11/61) Accurately ripped
04 3e9c717 (11/61) Accurately ripped
05 [1e03e35d] (11/61) Accurately ripped
06 05c864b (11/61) Accurately ripped
07 [5444626a] (11/61) Accurately ripped
08 [cc0ffb9f] (11/61) Accurately ripped
09 [232c9ff7] (11/60) Accurately ripped
10 [8191b5d2] (11/60) Accurately ripped
11 [3e40cebe] (11/60) Accurately ripped
Offsetted by -1123:
01 [95bf96a4] (10/61) Accurately ripped
02 [56dac1ff] (10/61) Accurately ripped
03 [f73d4611] (10/61) Accurately ripped
04 [98670ea8] (10/61) Accurately ripped
05 [fc767f20] (10/61) Accurately ripped
06 [d39d6536] (10/61) Accurately ripped
07 [88e8a632] (10/61) Accurately ripped
08 [88ee28d8] (10/61) Accurately ripped
09 [346fa232] (10/60) Accurately ripped
10 [446e7a97] (10/60) Accurately ripped
11 [f033b4e4] (10/60) Accurately ripped
Offsetted by -2138:
01 [591f8db3] (00/61) No match (V2 was not tested)
02 [82bf4fef] (00/61) No match (V2 was not tested)
03 [934dd59c] (00/61) No match (V2 was not tested)
04 [841042d5] (00/61) No match (V2 was not tested)
05 [47965610] (00/61) No match (V2 was not tested)
06 [cf59c507] (00/61) No match (V2 was not tested)
07 [53ed94fe] (00/61) No match (V2 was not tested)
08 [1457c036] (00/61) No match (V2 was not tested)
09 [46ab691d] (00/60) No match (V2 was not tested)
10 [8b168c47] (00/60) No match (V2 was not tested)
11 [736bc28f] (00/60) No match (V2 was not tested)
Offsetted by -2082:
01 4ad9c4c (00/61) No match (V2 was not tested)
02 [d8539e33] (00/61) No match (V2 was not tested)
03 [4f84fd8c] (00/61) No match (V2 was not tested)
04 432c626 (00/61) No match (V2 was not tested)
05 [12555949] (00/61) No match (V2 was not tested)
06 [3eb6edd0] (00/61) No match (V2 was not tested)
07 [9d1f2da7] (00/61) No match (V2 was not tested)
08 [19bfec59] (00/61) No match (V2 was not tested)
09 [38dc62de] (00/60) No match (V2 was not tested)
10 [533ad2de] (00/60) No match (V2 was not tested)
11 [8f6a13b4] (00/60) No match (V2 was not tested)

Track Peak [ CRC32 ] [W/O NULL] [ LOG ]
-- 100,0 669950D [A7F1B28F] CRC32
01 64,1 [AE67D798] [43AACE6A]
02 99,9 [531BED78] [58487F62]
03 72,6 [EB3D585F] [1427078D]
04 71,5 [705E8B36] [81FFA5A2]
05 67,7 [01CEAFF9] CB57837
06 88,1 [6C797E53] [0BAF1CF6]
07 78,1 [498C9224] [93A0E6D2]
08 69,6 [D9E91FCD] [2C7CC51B]
09 82,2 [5917D222] [48A812AB]
10 100,0 DC77F37 [170CD64C]
11 73,5 [EE3C91BB] [6313C608]

Thx to hexonut
password: asd
DOWNLOAD LINKS
Buy Premium From My Links To Get Resumable Support & Max Speed & To Support Me


Links are Interchangeable - No Password - Single Extraction
Direct Download

Tags: Skinny, Remission

Skinny Puppy - Remission (1984) Download via Hotfile Rapidshare Fileserve Megaupload & FileSonic, Skinny Puppy - Remission (1984) free torrent downloads included crack, serial, keygen.Skinny Puppy - Remission (1984) Fast Download via Rapidshare Hotfile Fileserve Filesonic Megaupload, Skinny Puppy - Remission (1984) Torrents and Emule Download or anything related.
Leave a Comment
Your Name:
E-Mail:
Add Comments:

Enter Code: