Anat Cohen - Luminosa (2015) {Anzic Records}

Download Now


Anat Cohen - Luminosa (2015) {Anzic Records}
Anat Cohen - Luminosa (2015) {Anzic Records}
EAC rip (secure mode) | FLAC (tracks)+CUE+LOG -> 323 Mb | MP3 @320 -> 143 Mb
Full Artwork @ 300 dpi (png) -> 18 Mb | 5% repair rar
© 2015 Anzic Records | ANZ-0050
Jazz / Post Bop / Clarinet / Saxophone

"The seventh album from Israeli-born saxophonist and clarinetist Anat Cohen, 2015's Luminosa showcases the N.Y.C.-based artist's eclectic mix of acoustic post-bop and Brazilian choro-influenced jazz. The album follows up her similarly inclined 2012 effort, Claroscuro, and provides a further showcase for her adroit improvisational skills and layered, sophisticated arrangements. Joining Cohen here is a bevy of equally gifted musicians, including keyboardist Jason Linder, bassist Joe Martin, and drummer Daniel Freedman. Luminosa also features a handful of guest artists including guitarist Romero Lubambo, percussionist Gilmar Gomes, and accordion player Vitor Goncalves. As with most of Cohen's recordings, Luminosa is a highly engaging, sophisticated, and romantic album."

AAJ INFO
Anzic INFO


Personnel:
Anat Cohen: Clarinet, Bass Clarinet, Tenor Saxophone
Jason Lindner: Piano, Wurlitzer Electric Piano, Analog Synthesizer
Joe Martin: Bass
Daniel Freedman: Drums

With Special Guests
Gilmar Gomes: Percussion (1,2,4,5,7)
Romero Lubambo: Guitar (4,5,7,10)
Gilad Hekselman: Guitar (11)
& Choro Aventoroso:
Vitor Gonçalves: Accordion (8.9)
Cesar Garabini: 7 String Guitar (8,9)
Sergio Krakowski: Pandeiro (8,9)

tracklist:
01. Lilia
02. Putty Boy Strut
03. Ima
04. Bachiao
05. Cais
06. Happy Song
07. In The Spirit of Baden
08. Ternura
09. Espinha De Bacalhau
10. Beatriz
11. The Wein Machine

Exact Audio Copy V1.1 from 23. June 2015

EAC extraction logfile from 2. September 2015, 21:45

Anat Cohen / Luminosa

Used drive : ATAPI iHBS112 2 Adapter: 1 ID: 0

Read mode : Secure
Utilize accurate stream : Yes
Defeat audio cache : Yes
Make use of C2 pointers : No

Read offset correction

: 6
Overread into Lead-In and Lead-Out : No
Fill up missing offset samples with silence : Yes
Delete leading and trailing silent blocks : No
Null samples used in CRC calculations : Yes
Used interface
: Native Win32 interface for Win NT & 2000
Gap handling
: Appended to previous track

Used output format : User Defined Encoder
Selected bitrate : 1024 kBit/s
Quality : High
Add ID3 tag : No
Command line compressor : C:\Program Files\Exact Audio Copy\Flac\flac.exe
Additional command line options : -8 -V -T "ARTIST=%artist%" -T "TITLE=%title%" -T "ALBUM=%albumtitle%" -T "DATE=%year%" -T "TRACKNUMBER=%tracknr%" -T "TOTALTRACKS=%numtracks%" -T "GENRE=%genre%" -T "ALBUMARTIST=%albumartist%" -T "ALBUM ARTIST=%albumartist%" -T "COMPOSER=%composer%" -T "PERFORMER=%albuminterpret%" -T "DISCNUMBER=%cdnumber%" -T "TOTALDISCS=%totalcds%" -T "COMMENT=EAC Secure Mode, Test & Copy, AccurateRip, FLAC -8" %source%

TOC of the extracted CD Track | Start | Length | Start sector | End sector
--1 | 0:00.00 | 6:00.03 | 0 | 27002 2 | 6:00.03 | 4:39.44 | 27003 | 47971 3 | 10:39.47 | 4:03.16 | 47972 | 66212 4 | 14:42.63 | 3:35.53 | 66213 | 82390 5 | 18:18.41 | 9:44.51 | 82391 | 126241 6 | 28:03.17 | 3:49.34 | 126242 | 143450 7 | 31:52.51 | 5:21.12 | 143451 | 167537 8 | 37:13.63 | 6:30.20 | 167538 | 196807 9 | 43:44.08 | 4:44.12 | 196808 | 218119
10 | 48:28.20 | 4:31.68 | 218120 | 238512
11 | 53:00.13 | 7:11.50 | 238513 | 270887

Track 1 Filename P:\DL\Anat Cohen - Luminosa (2015) [FLAC]\01 - Lilia.wav Pre-gap length 0:00:02.00 Peak level 96.3 %
Extraction speed 2.0 X
Track quality 100.0 %
Test CRC 18D43980
Copy CRC 18D43980
Track not present in AccurateRip database
Copy OK

Track 2 Filename P:\DL\Anat Cohen - Luminosa (2015) [FLAC]\02 - Putty Boy Strut.wav Pre-gap length 0:00:03.49 Peak level 96.6 %
Extraction speed 2.3 X
Track quality 100.0 %
Test CRC 4CD433D6
Copy CRC 4CD433D6
Track not present in AccurateRip database
Copy OK

Track 3 Filename P:\DL\Anat Cohen - Luminosa (2015) [FLAC]\03 - Ima.wav Pre-gap length 0:00:01.76 Peak level 96.1 %
Extraction speed 2.5 X
Track quality 100.0 %
Test CRC E9779A13
Copy CRC E9779A13
Track not present in AccurateRip database
Copy OK

Track 4 Filename P:\DL\Anat Cohen - Luminosa (2015) [FLAC]\04 - Bachiao.wav Pre-gap length 0:00:03.52 Peak level 94.5 %
Extraction speed 2.6 X
Track quality 100.0 %
Test CRC 17E137C5
Copy CRC 17E137C5
Track not present in AccurateRip database
Copy OK

Track 5 Filename P:\DL\Anat Cohen - Luminosa (2015) [FLAC]\05 - Cais.wav Pre-gap length 0:00:02.82 Peak level 96.2 %
Extraction speed 2.7 X
Track quality 99.9 %
Test CRC BC152890
Copy CRC BC152890
Track not present in AccurateRip database
Copy OK

Track 6 Filename P:\DL\Anat Cohen - Luminosa (2015) [FLAC]\06 - Happy Song.wav Pre-gap length 0:00:01.38 Peak level 96.1 %
Extraction speed 3.1 X
Track quality 100.0 %
Test CRC F923C0F7
Copy CRC F923C0F7
Track not present in AccurateRip database
Copy OK

Track 7 Filename P:\DL\Anat Cohen - Luminosa (2015) [FLAC]\07 - In the spirit of Baden.wav Pre-gap length 0:00:02.41 Peak level 96.7 %
Extraction speed 3.4 X
Track quality 100.0 %
Test CRC 6F4B5935
Copy CRC 6F4B5935
Track not present in AccurateRip database
Copy OK

Track 8 Filename P:\DL\Anat Cohen - Luminosa (2015) [FLAC]\08 - Tennura.wav Pre-gap length 0:00:03.48 Peak level 96.3 %
Extraction speed 3.6 X
Track quality 100.0 %
Test CRC BD0B4792
Copy CRC BD0B4792
Track not present in AccurateRip database
Copy OK

Track 9 Filename P:\DL\Anat Cohen - Luminosa (2015) [FLAC]\09 - Espinha deBacalhua.wav Pre-gap length 0:00:01.16 Peak level 96.4 %
Extraction speed 2.8 X
Track quality 99.9 %
Test CRC 5E6E9E3F
Copy CRC 5E6E9E3F
Track not present in AccurateRip database
Copy OK

Track 10 Filename P:\DL\Anat Cohen - Luminosa (2015) [FLAC]\10 - Beatriz.wav Pre-gap length 0:00:02.74 Peak level 78.7 %
Extraction speed 2.9 X
Track quality 99.9 %
Test CRC 454C648C
Copy CRC 454C648C
Track not present in AccurateRip database
Copy OK

Track 11 Filename P:\DL\Anat Cohen - Luminosa (2015) [FLAC]\11 - The Wein Machine.wav Pre-gap length 0:00:04.05 Peak level 96.3 %
Extraction speed 4.1 X
Track quality 100.0 %
Test CRC 79A30FA5
Copy CRC 79A30FA5
Track not present in AccurateRip database
Copy OK

None of the tracks are present in the AccurateRip database

No errors occurred

End of status report

- CUETools DB Plugin V2.1.6

[CTDB TOCID: JFWVZGkOckNnrB.YFk25vaF5Er4-] found
Submit result:
Track | CTDB Status
1 | (3/3) Accurately ripped
2 | (3/3) Accurately ripped
3 | (3/3) Accurately ripped
4 | (3/3) Accurately ripped
5 | (3/3) Accurately ripped
6 | (3/3) Accurately ripped
7 | (3/3) Accurately ripped
8 | (3/3) Accurately ripped
9 | (3/3) Accurately ripped
10 | (3/3) Accurately ripped
11 | (3/3) Accurately ripped

==== Log checksum 829662D5206A5E613DBF9991523787C5780B516255BDCB59956EE888CB3896FA ====

Anat Cohen - Luminosa (2015) {Anzic Records}

Anat Cohen - Luminosa (2015) {Anzic Records}


thanks to dtromp...
DOWNLOAD:
Buy Premium To Support Me & Get Resumable Support & Max Speed


Links are Interchangeable - No Password
Direct Download

Tags: Luminosa, Records

Anat Cohen - Luminosa (2015) {Anzic Records} Download via Hotfile Rapidshare Fileserve Megaupload & FileSonic, Anat Cohen - Luminosa (2015) {Anzic Records} free torrent downloads included crack, serial, keygen.Anat Cohen - Luminosa (2015) {Anzic Records} Fast Download via Rapidshare Hotfile Fileserve Filesonic Megaupload, Anat Cohen - Luminosa (2015) {Anzic Records} Torrents and Emule Download or anything related.
Leave a Comment
Your Name:
E-Mail:
Add Comments:

Enter Code: