Various Artists - Time Trip: Hits Of The 70's, 80's, 90's (3CD - 1996) *RE-UP

Download Now

Various Artists - Time Trip: Hits Of The 70's, 80's, 90's (3CD - 1996) *RE-UP

Various Artists - Time Trip: Hits Of The 70's, 80's, 90's (3CD - 1996)
FLAC+CUE+LOG - 1,29 GB | TT - 202:43 mins | Full Scans | MP3 CBR 320 Kbps - 458 MB

Tracklist:

01. Meat Loaf - Paradise By The Dashboard Light
02. Johnny Mathis & Deniece Williams - Too Much, Too Little, Too Late
03. O'Jays - Used To Be My Girl
04. Kansas - Dust In The Wind
05. Bill Withers - Lovely Day
06. Umberto Tozzi - Ti Amo
07. Eddie Money - Baby Hold On
08. Boston - Don't Look Back
09. Billy Joel - She's Always A Woman
10. Ram Jam - Black Betty
11. Jacksons - Blame It On The Boogie
12. Neil Diamond - Let Me Take You In My Arms Again
13. Kenny Loggins - Whenever I Call You 'Friend'
14. Earth, Wind & Fire - Fantasy
15. Mother's Finest - Piece Of The Rock
16. Johnny Mathis & Deniece Williams - Just The Way You Are
17. Jeff Wayne - The Eve Of The War
18. Santana - She's Not There

Exact Audio Copy V0.99 prebeta 5 from 4. May 2009

Отчёт EAC об извлечении, выполненном 9. июня 2011, 11:40

Various artists / Hits from the seventieth

Дисковод: Optiarc DVD RW AD-7173A Adapter: 0 ID: 0

Режим чтения : Достоверность
Использование точного потока : Да
Отключение кэша аудио : Да
Использование указателей C2 : Нет

Коррекция смещения при чтении : 48
Способность читать области Lead-in и Lead-out : Нет
Заполнение пропущенных сэмплов тишиной : Да
Удаление блоков с тишиной в начале и конце : Нет
При вычислениях CRC использовались нулевые сэмплы : Да
Интерфейс : Встроенный Win32-интерфейс для Win NT/2000

Выходной формат : Пользовательский кодировщик
Выбранный битрейт : 128 kBit/s
Качество : Высокий
Добавление ID3-тэга : Нет
Утилита сжатия : C:\Program Files (x86)\Exact Audio Copy\Flac\flac.exe
Дополнительные параметры : -8 -V %s

TOC извлечённого CD Трек | Старт | Длительность | Начальный сектор | Конечный сектор

1 | 0:00.00 | 5:32.10 | 0 | 24909
2 | 5:32.10 | 3:00.05 | 24910 | 38414
3 | 8:32.15 | 4:03.52 | 38415 | 56691
4 | 12:35.67 | 3:24.50 | 56692 | 72041
5 | 16:00.42 | 4:15.35 | 72042 | 91201
6 | 20:16.02 | 4:08.63 | 91202 | 109864
7 | 24:24.65 | 3:32.62 | 109865 | 125826
8 | 27:57.52 | 6:03.38 | 125827 | 153089
9 | 34:01.15 | 3:19.50 | 153090 | 168064
10 | 37:20.65 | 2:30.52 | 168065 | 179366
11 | 39:51.42 | 3:36.38 | 179367 | 195604
12 | 43:28.05 | 2:57.60 | 195605 | 208939
13 | 46:25.65 | 3:59.70 | 208940 | 226934
14 | 50:25.60 | 4:39.07 | 226935 | 247866
15 | 55:04.67 | 3:27.15 | 247867 | 263406
16 | 58:32.07 | 3:45.33 | 263407 | 280314
17 | 62:17.40 | 4:35.00 | 280315 | 300939
18 | 66:52.40 | 4:04.52 | 300940 | 319291

Характеристики диапазона извлечения и сообщения об ошибках

Выбранный диапазон Имя файла C:\Users\FLEGELART\Desktop\Various artists - Hits from the seventieth.wav Пиковый уровень 98.7 %
Качество диапазона 99.9 %
CRC теста 1D6C2B2F
CRC копии 1D6C2B2F
Копирование... OK

Ошибок не произошло


AccurateRip: сводка

Трек 1 точность не определена (достоверность 4) [FCDC7A3A], AccurateRip вернул [9E0B93A5]
Трек 2 точность не определена (достоверность 4) [AC45E1E9], AccurateRip вернул [97F9D0C9]
Трек 3 точность не определена (достоверность 3) [9B2F66DB], AccurateRip вернул [2C3530ED]
Трек 4 точность не определена (достоверность 4) [1022224C], AccurateRip вернул F7EE317
Трек 5 точность не определена (достоверность 4) [AB592CF4], AccurateRip вернул [10FD225E]
Трек 6 точность не определена (достоверность 3) [02712A8E], AccurateRip вернул [E5953515]
Трек 7 точность не определена (достоверность 4) [F1A0C62A], AccurateRip вернул [7E83252A]
Трек 8 точность не определена (достоверность 4) [9823B765], AccurateRip вернул [3DC6E6C5]
Трек 9 точность не определена (достоверность 3) [A847B9E7], AccurateRip вернул [E7A8A75A]
Трек 10 точность не определена (достоверность 4) [AE139F85], AccurateRip вернул [378F2A44]
Трек 11 точность не определена (достоверность 3) [951B77E1], AccurateRip вернул [3F9EEBE5]
Трек 12 точность не определена (достоверность 3) [0A5E3AAE], AccurateRip вернул [E7257D4A]
Трек 13 точность не определена (достоверность 4) [3EAA36C9], AccurateRip вернул [30509367]
Трек 14 точность не определена (достоверность 3) [7D0246AA], AccurateRip вернул [532F7B5B]
Трек 15 точность не определена (достоверность 4) [872196D1], AccurateRip вернул [92B980C9]
Трек 16 точность не определена (достоверность 4) [8C2637FE], AccurateRip вернул [E6DB3DCC]
Трек 17 точность не определена (достоверность 2) [93724719], AccurateRip вернул [37A73696]
Трек 18 точность не определена (достоверность 4) [617A916B], AccurateRip вернул [37DA8CED]

Ни один трек не прошёл проверки на точность
В вашей базе может быть иной вариант штамповки диска

Конец отчёта

--

Various Artists - Time Trip: Hits Of The 70's, 80's, 90's (3CD - 1996) *RE-UP
Various Artists - Time Trip: Hits Of The 80's (1996)
FLAC+CUE+LOG - 472 MB | Full Scans | MP3 CBR 320 Kbps - 164 MB
Popular Music | 72:22 minutes | Label: Sony Special Products # LSP 980321-2


Tracklist:

01. Michael Jackson - Beat It
02. Nena - 99 Luftballons
03. Earth, Wind & Fire - Fall In Love With Me
04. Weather Girls - It's Raining Men
05. Wham - Young Guns (Go For It)
06. The Nits - Nescio
07. Carlos Santana - They All Went To Mexico
08. Men At Work - Overkill
09. The Jacksons - Ben
10. Billy Joel - Tell Her About It
11. Wham - Wham Rap!
12. Marvin Gaye - Sexual Healing
13. The S.O.S. Band - Just Be Good To Me
14. Shakin' Stevens - Cry Just A Little Bit
15. KC & The Sunshine Band - Give It Up
16. Time Bandits - I'm Specialized In You
17. Bonnie Tyler - Total Eclipse Of The Heart
18. Jimmy Cliff - Reggae Night

Exact Audio Copy V0.99 prebeta 5 from 4. May 2009

Отчёт EAC об извлечении, выполненном 6. июня 2011, 23:04

Various / Hits from the eightieth

Дисковод: Optiarc DVD RW AD-7173A Adapter: 0 ID: 0

Режим чтения : Достоверность
Использование точного потока : Да
Отключение кэша аудио : Да
Использование указателей C2 : Нет

Коррекция смещения при чтении : 48
Способность читать области Lead-in и Lead-out : Нет
Заполнение пропущенных сэмплов тишиной : Да
Удаление блоков с тишиной в начале и конце : Нет
При вычислениях CRC использовались нулевые сэмплы : Да
Интерфейс : Встроенный Win32-интерфейс для Win NT/2000

Выходной формат : Пользовательский кодировщик
Выбранный битрейт : 128 kBit/s
Качество : Высокий
Добавление ID3-тэга : Нет
Утилита сжатия : C:\Program Files (x86)\Exact Audio Copy\Flac\flac.exe
Дополнительные параметры : -8 -V %s

TOC извлечённого CD Трек | Старт | Длительность | Начальный сектор | Конечный сектор

1 | 0:00.00 | 4:17.25 | 0 | 19299
2 | 4:17.25 | 3:53.05 | 19300 | 36779
3 | 8:10.30 | 3:54.50 | 36780 | 54379
4 | 12:05.05 | 3:31.65 | 54380 | 70269
5 | 15:36.70 | 3:41.12 | 70270 | 86856
6 | 19:18.07 | 4:46.45 | 86857 | 108351
7 | 24:04.52 | 4:45.20 | 108352 | 129746
8 | 28:49.72 | 3:45.58 | 129747 | 146679
9 | 32:35.55 | 2:59.42 | 146680 | 160146
10 | 35:35.22 | 3:47.23 | 160147 | 177194
11 | 39:22.45 | 3:30.65 | 177195 | 193009
12 | 42:53.35 | 4:07.65 | 193010 | 211599
13 | 47:01.25 | 5:43.62 | 211600 | 237386
14 | 52:45.12 | 3:10.05 | 237387 | 251641
15 | 55:55.17 | 4:13.30 | 251642 | 270646
16 | 60:08.47 | 3:52.08 | 270647 | 288054
17 | 64:00.55 | 4:30.32 | 288055 | 308336
18 | 68:31.12 | 3:50.40 | 308337 | 325626

Характеристики диапазона извлечения и сообщения об ошибках

Выбранный диапазон Имя файла C:\Users\FLEGELART\Desktop\Various - Hits from the eightieth.wav Пиковый уровень 100.0 %
Качество диапазона 100.0 %
CRC теста 2EEA52A7
CRC копии 2EEA52A7
Копирование... OK

Ошибок не произошло


AccurateRip: сводка

Трек 1 точное извлечение (доверие 3) B384E66
Трек 2 точное извлечение (доверие 3) [785E0F71]
Трек 3 точное извлечение (доверие 3) [810AFF54]
Трек 4 точное извлечение (доверие 3) [0CA21FB4]
Трек 5 точное извлечение (доверие 3) [816D7526]
Трек 6 точное извлечение (доверие 3) [6E22DDCD]
Трек 7 точное извлечение (доверие 3) [192463A9]
Трек 8 точное извлечение (доверие 3) [CD4D4E65]
Трек 9 точное извлечение (доверие 3) [9F8392C2]
Трек 10 точное извлечение (доверие 3) [E7445CE1]
Трек 11 точное извлечение (доверие 3) [340EE25B]
Трек 12 точное извлечение (доверие 3) [5FBAD2D8]
Трек 13 точное извлечение (доверие 3) [8F8C5DF2]
Трек 14 точное извлечение (доверие 3) [A3D05033]
Трек 15 точное извлечение (доверие 3) [3BAF07DB]
Трек 16 точное извлечение (доверие 3) [45256412]
Трек 17 точное извлечение (доверие 3) [F399FD30]
Трек 18 точное извлечение (доверие 3) [52DB5845]

Все треки извлечены точно

Конец отчёта

--

Various Artists - Time Trip: Hits Of The 70's, 80's, 90's (3CD - 1996) *RE-UP
Various Artists - Time Trip: Hits Of The 90's (1996)
EAC-FLAC+CUE+LOG - 399 MB | Full Scans | MP3 CBR 320 Kbps - 133 MB
Popular Music | 59:25 minutes | Label: Sony Special Products # LSP 984941-2


Tracklist:

01. Toto - Don't Chain My Heart
02. C & C Music Factory - Gonna Make You Sweat (Everybody Dance Now)
03. Luther Vandross - Heaven Knows
04. Mn8 - I've Got A Little Something For You
05. Trey Lorenz - Someone To Hold
06. Living Colour - Love Rears It's Ugly Head
07. Shabba Ranks - Mr. Loverman (Radio Mix)
08. Bad English - Time Stood Still
09. Jimmy Cliff - I Can See Clearly Know
10. Erma Franklin - Piece Of My Heart
11. Candyman - Knockin' Boots
12. Cyndi Lauper - The World Is Stone
13. Ten Sharp - You
14. Martika - Martika's Kitchen

Exact Audio Copy V0.99 prebeta 5 from 4. May 2009

Отчёт EAC об извлечении, выполненном 8. мая 2011, 16:44

Various / Hits from the nineties

Дисковод: ASUS DRW-1814BL Adapter: 0 ID: 0

Режим чтения : Достоверность
Использование точного потока : Да
Отключение кэша аудио : Да
Использование указателей C2 : Нет

Коррекция смещения при чтении : 6
Способность читать области Lead-in и Lead-out : Нет
Заполнение пропущенных сэмплов тишиной : Да
Удаление блоков с тишиной в начале и конце : Нет
При вычислениях CRC использовались нулевые сэмплы : Да
Интерфейс : Встроенный Win32-интерфейс для Win NT/2000

Выходной формат : Пользовательский кодировщик
Выбранный битрейт : 128 kBit/s
Качество : Высокий
Добавление ID3-тэга : Нет
Утилита сжатия : C:\Program Files\Exact Audio Copy\Flac\flac.exe
Дополнительные параметры : -8 -V %s

TOC извлечённого CD Трек | Старт | Длительность | Начальный сектор | Конечный сектор

1 | 0:00.00 | 4:46.40 | 0 | 21489
2 | 4:46.40 | 4:05.45 | 21490 | 39909
3 | 8:52.10 | 5:01.57 | 39910 | 62541
4 | 13:53.67 | 3:41.45 | 62542 | 79161
5 | 17:35.37 | 4:42.53 | 79162 | 100364
6 | 22:18.15 | 4:20.72 | 100365 | 119936
7 | 26:39.12 | 3:39.63 | 119937 | 136424
8 | 30:19.00 | 5:23.10 | 136425 | 160659
9 | 35:42.10 | 3:08.17 | 160660 | 174776
10 | 38:50.27 | 2:36.18 | 174777 | 186494
11 | 41:26.45 | 3:53.42 | 186495 | 204011
12 | 45:20.12 | 4:25.58 | 204012 | 223944
13 | 49:45.70 | 4:33.32 | 223945 | 244451
14 | 54:19.27 | 5:05.13 | 244452 | 267339

Характеристики диапазона извлечения и сообщения об ошибках

Выбранный диапазон Имя файла C:\Documents and Settings\Admin\Рабочий стол\Various - Hits from the nineties.wav Пиковый уровень 97.7 %
Качество диапазона 100.0 %
CRC теста F49F1E3A
CRC копии F49F1E3A
Копирование... OK

Ошибок не произошло


AccurateRip: сводка

Трек 1 нет в базе данных
Трек 2 нет в базе данных
Трек 3 нет в базе данных
Трек 4 нет в базе данных
Трек 5 нет в базе данных
Трек 6 нет в базе данных
Трек 7 нет в базе данных
Трек 8 нет в базе данных
Трек 9 нет в базе данных
Трек 10 нет в базе данных
Трек 11 нет в базе данных
Трек 12 нет в базе данных
Трек 13 нет в базе данных
Трек 14 нет в базе данных

Ни одного трека нет в базе AccurateRip

Конец отчёта

Thanks to BENDJAMIN!



Hits of 70's
Hits of 80's
Hits of 90's
All covers included.

Hits of 70's
Hits of 80's
Hits of 90's
All covers included.


DOWNLOAD LINKS
Buy Premium From My Links To Get Resumable Support & Max Speed & To Support Me

Rapidgator.net:
http://rapidgator.net/file/79280f02313ab00a7036b45b5381bf88/uvtsl.TimeTrip70LC.rar.html
http://rapidgator.net/file/db84e74684b248201c9d9a11c5015427/uvtsl.TimeTrip70MC.rar.html
http://rapidgator.net/file/f944002e34caa0ac6078f8daad6a52d9/uvtsl.TimeTrip80LC.rar.html
http://rapidgator.net/file/1828c0ea0cbdc5db8ac4bc8ffb088df9/uvtsl.TimeTrip80MC.rar.html
http://rapidgator.net/file/c3a4fa6d9b5bf1c43dba6a77b3c9a1b1/uvtsl.TimeTrip90LC.rar.html
http://rapidgator.net/file/f32c6e96ee807ae03067e1fa4daea565/uvtsl.TimeTrip90MC.rar.html

Uploaded.net:
http://uploaded.net/file/6kx99m4z/uvtsl.TimeTrip70LC.rar
http://uploaded.net/file/owmh47f0/uvtsl.TimeTrip70MC.rar
http://uploaded.net/file/w45qcalt/uvtsl.TimeTrip80LC.rar
http://uploaded.net/file/l04ig5x7/uvtsl.TimeTrip80MC.rar
http://uploaded.net/file/pgyhxw56/uvtsl.TimeTrip90LC.rar
http://uploaded.net/file/px35totz/uvtsl.TimeTrip90MC.rar

nitroflare_com:
http://nitroflare.com/view/F080B507F2E4458/uvtsl.TimeTrip70LC.rar
http://nitroflare.com/view/256DB735F9A4119/uvtsl.TimeTrip70MC.rar
http://nitroflare.com/view/8648B90E9994AA0/uvtsl.TimeTrip80LC.rar
http://nitroflare.com/view/310515533E87720/uvtsl.TimeTrip80MC.rar
http://nitroflare.com/view/61F9BB6B1DC69C7/uvtsl.TimeTrip90LC.rar
http://nitroflare.com/view/7D966CDBAE3011C/uvtsl.TimeTrip90MC.rar

Uploadable.ch:
http://www.uploadable.ch/file/2W8EnbC4hqKW/uvtsl.TimeTrip70LC.rar
http://www.uploadable.ch/file/t7WtTAnc6JjJ/uvtsl.TimeTrip70MC.rar
http://www.uploadable.ch/file/kfFRQbpcmsGn/uvtsl.TimeTrip80LC.rar
http://www.uploadable.ch/file/yjXN8S5rSMaT/uvtsl.TimeTrip80MC.rar
http://www.uploadable.ch/file/tDRnAvzg4H3v/uvtsl.TimeTrip90LC.rar
http://www.uploadable.ch/file/Su7adAsJC5Cz/uvtsl.TimeTrip90MC.rar

Links are Interchangeable - No Password - Single Extraction
Direct Download

Tags: Various, Artists

Various Artists - Time Trip: Hits Of The 70's, 80's, 90's (3CD - 1996) *RE-UP Download via Hotfile Rapidshare Fileserve Megaupload & FileSonic, Various Artists - Time Trip: Hits Of The 70's, 80's, 90's (3CD - 1996) *RE-UP free torrent downloads included crack, serial, keygen.Various Artists - Time Trip: Hits Of The 70's, 80's, 90's (3CD - 1996) *RE-UP Fast Download via Rapidshare Hotfile Fileserve Filesonic Megaupload, Various Artists - Time Trip: Hits Of The 70's, 80's, 90's (3CD - 1996) *RE-UP Torrents and Emule Download or anything related.
Leave a Comment
Your Name:
E-Mail:
Add Comments:

Enter Code: