The Nice - Five Bridges (1970) [2015, Universal Music Japan, UICY-40151]

Download Now

The Nice - Five Bridges (1970) [2015, Universal Music Japan, UICY-40151]

The Nice - Five Bridges (1970)
EAC | Flac(Image) + Cue + Log & MP3 CBR 320Kbps
Universal Music Japan, UICY-40151 | ~ 296 or 108 Mb | Scans(png) -> 229 Mb
Art Rock / Avantgarde / Prog Rock

"Five Bridges is a delectable representation of early-'70s progressive rock. Its makeup contains all of the elements needed to complete a solid prog album: a heavy intermingling of synthesizer and electric guitar, strong punctuation of both bass and drums, a central concept, and the fusing of rock and classical music, which in this case employs the Sinfonia of London..."


Tracklist:

01 Fantasia: 1st Bridge / 2nd Bridge
02 Chorale: 3rd Bridge
03 High Level Fugue: 4th Bridge
04 Finale: 5th Bridge
05 Intermezzo: 'Karelia Suite'
06 Pathetique (Symphony No. 6, 3rd Movement)
07 Country Pie / Brandenburg Concerto No. 6
08 One Of Those People

Exact Audio Copy V1.1 from 23. June 2015

EAC extraction logfile from 23. August 2015, 9:17

The Nice / Five Bridges PT-SHM

Used drive : PLEXTOR BD-R PX-B950SA Adapter: 1 ID: 1

Read mode : Secure
Utilize accurate stream : Yes
Defeat audio cache : Yes
Make use of C2 pointers : No

Read offset correction

: 6
Overread into Lead-In and Lead-Out : No
Fill up missing offset samples with silence : Yes
Delete leading and trailing silent blocks : No
Null samples used in CRC calculations : Yes
Used interface
: Native Win32 interface for Win NT & 2000

Used output format : Internal WAV Routines
Sample format : 44.100 Hz; 16 Bit; Stereo

TOC of the extracted CD Track | Start | Length | Start sector | End sector
--1 | 0:00.00 | 2:41.57 | 0 | 12131 2 | 2:41.57 | 3:26.03 | 12132 | 27584 3 | 6:07.60 | 4:02.60 | 27585 | 45794 4 | 10:10.45 | 8:04.52 | 45795 | 82146 5 | 18:15.22 | 9:01.70 | 82147 | 122791 6 | 27:17.17 | 9:33.25 | 122792 | 165791 7 | 36:50.42 | 5:47.00 | 165792 | 191816 8 | 42:37.42 | 3:11.63 | 191817 | 206204

Range status and errors

Selected range Filename C:\Users\Meijin\Desktop\ALLexxess\The Nice\1970 Five Bridges (Mini LP PT-SHM Universal Japan 2015)\The Nice - Five Bridges PT-SHM.wav Peak level 93.8 %
Extraction speed 6.8 X
Range quality 100.0 %
Test CRC DFA0F77D
Copy CRC DFA0F77D
Copy OK

No errors occurred


AccurateRip summary

Track 1 not present in database
Track 2 not present in database
Track 3 not present in database
Track 4 not present in database
Track 5 not present in database
Track 6 not present in database
Track 7 not present in database
Track 8 not present in database

None of the tracks are present in the AccurateRip database

End of status report

- CUETools DB Plugin V2.1.6

[CTDB TOCID: UZ5OY1dw7Vu1sVPd2W8ycGFadD8-] disk not present in database
Submit result: UZ5OY1dw7Vu1sVPd2W8ycGFadD8- has been uploaded

==== Log checksum BE658D8E579B12DD7554C2218F34E44A5C9E954709166996C51E6CA4E9C5D507 ====

foobar2000 1.2.9 / Dynamic Range Meter 1.1.1
log date: 2015-09-04 11:57:19

Analyzed: The Nice / Five Bridges PT-SHM

DR Peak RMS Duration Track

DR12 -0.89 dB -17.68 dB 2:42 01-Fantasia: 1st Bridge / 2nd Bridge
DR12 -1.33 dB -17.35 dB 3:26 02-Chorale: 3rd Bridge
DR11 -1.33 dB -15.65 dB 4:03 03-High Level Fugue: 4th Bridge
DR11 -1.28 dB -15.05 dB 8:05 04-Finale: 5th Bridge
DR10 -2.52 dB -17.01 dB 9:02 05-Intermezzo: 'Karelia Suite'
DR12 -1.06 dB -16.85 dB 9:33 06-Pathetique (Symphony No. 6, 3rd Movement)
DR11 -0.55 dB -14.59 dB 5:47 07-Country Pie / Brandenburg Concerto No. 6
DR10 -1.49 dB -14.71 dB 3:12 08-One Of Those People

Number of tracks: 8
Official DR value: DR11

Samplerate: 44100 Hz
Channels: 2
Bits per sample: 16
Bitrate: 876 kbps
Codec: FLAC

[CUETools log; Date: 04.09.2015 11:52:50; Version: 2.1.4]
[CTDB TOCID: UZ5OY1dw7Vu1sVPd2W8ycGFadD8-] found.
Track | CTDB Status
1 | (1/1) Accurately ripped
2 | (1/1) Accurately ripped
3 | (1/1) Accurately ripped
4 | (1/1) Accurately ripped
5 | (1/1) Accurately ripped
6 | (1/1) Accurately ripped
7 | (1/1) Accurately ripped
8 | (1/1) Accurately ripped
[AccurateRip ID: 000d08f9-005b6104-670abd08] disk not present in database.

Track Peak [ CRC32 ] [W/O NULL] [ LOG ]
-- 93,8 [DFA0F77D] [390F5410] CRC32
01 90,2 [0D119341] A6B1CDF
02 85,8 [3356703B] [1CD59E5B]
03 85,7 [DC9AA63A] [79749AC8]
04 86,3 [1E4B1E2B] [A8A70B2F]
05 74,8 [985829C2] [8DFF1838]
06 88,4 [8E2EC2A4] [42858263]
07 93,8 [C2419D06] [83D9D6F0]
08 84,2 [1DE45884] [325A9A1A]

The Nice - Five Bridges (1970) [2015, Universal Music Japan, UICY-40151]

All thanks go to ALLexxess

Download The Nice - Five Bridges (1970):


Download Links:
(Premium Recommended)


All above links are interchangable. No password
Direct Download

Tags: Bridges, Universal

The Nice - Five Bridges (1970) [2015, Universal Music Japan, UICY-40151] Download via Hotfile Rapidshare Fileserve Megaupload & FileSonic, The Nice - Five Bridges (1970) [2015, Universal Music Japan, UICY-40151] free torrent downloads included crack, serial, keygen.The Nice - Five Bridges (1970) [2015, Universal Music Japan, UICY-40151] Fast Download via Rapidshare Hotfile Fileserve Filesonic Megaupload, The Nice - Five Bridges (1970) [2015, Universal Music Japan, UICY-40151] Torrents and Emule Download or anything related.
Leave a Comment
Your Name:
E-Mail:
Add Comments:

Enter Code: