Soft Machine - Spaced (1996)

Download Now

Soft Machine - Spaced (1996)

Soft Machine - Spaced (1996)
EAC Rip | WavPack (image+.cue+log) - 392 MB | MP3 CBR 320 kbps (LAME 3.93) - 158 MB | Covers - 92 MB
Genre: Progressive/Jazz Rock, Experimental | RAR 3% Rec. | Label: Cuneiform Records (Rune 90)

"In 1969, Soft Machine were commissioned to provide music for a multimedia show at the Roundhouse in London. As Hugh Hopper writes in the liner notes, "they wanted a backing tape of suitably deranged and doomy sounds," and the group (augmented in parts by saxophonist Brian Hopper) delivered suitably abstract music that was high on improvisational challenge and low on melody. This 67-minute CD was compiled from music used in the show. It varies from off-kilter planetarium-type sounds (especially evident in Mike Ratledge's astral electric keyboards) to background-type instrumental jazz-rock to bordering-on-clamorous noisy improv (especially on the 32-minute "Spaced Four")..."

Tracklist:
01. Spaced One
02. Spaced Two
03. Spaced Three
04. Spaced Four
05. Spaced Five
06. Spaced Six
07. Spaced Seven

Total time: 01:07:19

Exact Audio Copy V1.0 beta 3 from 29. August 2011

EAC extraction logfile from 13. December 2012, 8:59

Soft Machine / Spaced

Used drive : HL-DT-STBDDVDRW GBC-H20N Adapter: 1 ID: 0

Read mode : Secure
Utilize accurate stream : Yes
Defeat audio cache : Yes
Make use of C2 pointers : No

Read offset correction

: 667
Overread into Lead-In and Lead-Out : No
Fill up missing offset samples with silence : Yes
Delete leading and trailing silent blocks : No
Null samples used in CRC calculations : Yes
Used interface
: Native Win32 interface for Win NT & 2000

Used output format : User Defined Encoder
Selected bitrate : 1024 kBit/s
Quality : High
Add ID3 tag : No
Command line compressor : C:\Program Files\Exact Audio Copy\wavpack.exe
Additional command line options : -hm %source% %dest%

TOC of the extracted CD Track | Start | Length | Start sector | End sector
--1 | 0:00.00 | 12:04.65 | 0 | 54364 2 | 12:04.65 | 7:38.05 | 54365 | 88719 3 | 19:42.70 | 2:58.47 | 88720 | 102116 4 | 22:41.42 | 32:12.65 | 102117 | 247081 5 | 54:54.32 | 4:18.03 | 247082 | 266434 6 | 59:12.35 | 4:12.42 | 266435 | 285376 7 | 63:25.02 | 3:53.38 | 285377 | 302889

Range status and errors

Selected range Filename I:\Music\Canterbury scene\Soft Machine\Soft.Machine-Discography.1968-2010.FLAC.CUE.Lossless\2 - Live\10 - Spaced\Soft Machine - Spaced.wav Peak level 98.8 %
Extraction speed 6.3 X
Range quality 100.0 %
Test CRC 60A56849
Copy CRC 60A56849
Copy OK

No errors occurred


AccurateRip summary

Track 1 accurately ripped (confidence 3) [EEAD828C] (AR v2)
Track 2 accurately ripped (confidence 3) [7C2A422B] (AR v2)
Track 3 accurately ripped (confidence 3) [CDCBEFF0] (AR v2)
Track 4 accurately ripped (confidence 3) D7A7F7D (AR v2)
Track 5 accurately ripped (confidence 3) [D44E2920] (AR v2)
Track 6 accurately ripped (confidence 3) [50A94B3D] (AR v2)
Track 7 accurately ripped (confidence 3) D27DBD7 (AR v2)

All tracks accurately ripped

End of status report

- CUETools DB Plugin V2.1.3

[CTDB TOCID: c4wyyD4HqpcjCLVnzHNZxD6bgl0-] found, Submit result: c4wyyD4HqpcjCLVnzHNZxD6bgl0- has been confirmed
[15f10fe3] (8/8) Accurately ripped

==== Log checksum 1F3206916CF4F4BA1B3DC980BAC3EAD3496E15162632D64DFC7378A0E8057B00 ====

[CUETools log; Date: 03.09.2015 19:48:06; Version: 2.1.4]
[CTDB TOCID: c4wyyD4HqpcjCLVnzHNZxD6bgl0-] found.
Track | CTDB Status
1 | (7/7) Accurately ripped
2 | (7/7) Accurately ripped
3 | (7/7) Accurately ripped
4 | (7/7) Accurately ripped
5 | (7/7) Accurately ripped
6 | (7/7) Accurately ripped
7 | (7/7) Accurately ripped
[AccurateRip ID: 00148daa-007aa6fa-630fc607] found.
Track [ CRC | V2 ] Status
01 [6edb6192|eead828c] (06+11/17) Accurately ripped
02 [2aaee435|7c2a422b] (06+11/17) Accurately ripped
03 [1e0e30f4|cdcbeff0] (06+11/17) Accurately ripped
04 [e3a30a9b|bd7a7f7d] (06+10/16) Accurately ripped
05 [06714078|d44e2920] (06+10/16) Accurately ripped
06 [45ff46b9|50a94b3d] (06+10/16) Accurately ripped
07 [4e752d45|bd27dbd7] (07+11/18) Accurately ripped

Track Peak [ CRC32 ] [W/O NULL] [ LOG ]
-- 98,8 [60A56849] [3C61A8E0] CRC32
01 95,8 [D4E003E7] [A727F762]
02 97,5 [C1B5A263] [0B7462D1]
03 96,7 [CF09708B] C9CEDA2
04 98,8 [23F50E1E] C5A9012
05 80,6 [76424B19] [7335FE32]
06 98,8 [AC18CD09] [19FEBAE6]
07 84,9 [A4A4EFCF] [1AE18B42]

Thanks to arizonadream

See also (Soft Machine, Soft Machine Legacy, Soft Heap, Soft Works):
DOWNLOAD LINKS:


No Password
Direct Download

Tags: Machine, Spaced

Soft Machine - Spaced (1996) Download via Hotfile Rapidshare Fileserve Megaupload & FileSonic, Soft Machine - Spaced (1996) free torrent downloads included crack, serial, keygen.Soft Machine - Spaced (1996) Fast Download via Rapidshare Hotfile Fileserve Filesonic Megaupload, Soft Machine - Spaced (1996) Torrents and Emule Download or anything related.
Leave a Comment
Your Name:
E-Mail:
Add Comments:

Enter Code: