Satan's Pilgrims - Soul Pilgrim (1995) Re-uploaD

Download Now

Satan's Pilgrims - Soul Pilgrim (1995) Re-uploaD

Satan's Pilgrims - Soul Pilgrim (1995)
EAC | FLAC+CUE +LOG - 302 MB | Full Scans | MP3 CBR 320 Kbps - 104 MB
Surf Revival / Instrumental | 40:47 mins | Label: Estrus Records | Cat. # ESD 1226-2

Taking their name from the 60's B-film of Satan's Sadists, the line up of Dave Pilgrim (guitar/ keyboards) Bobby Pilgrim (guitar), John Pilgrim (bass), Scott Pilgrim (guitar) and Ted Pilgrim (drums) got together in 1992 under the moniker of Satan's Pilgrams. Being compared to the Northwestern legends of The Ventures, The Sonics, The Wailers and The Kingsmen, the band continued their relationship with second album "Soul Pilgrim" released in 1995 on Estrus Records.
"Satan's Pilgrims have always been a very one-track band: they play surf instrumentals, pure and simple, and with all of the kitschy smoothness and danceability that this endeavor implies in the '90s. Soul Pilgrim delivers what's expected, although it does feature a reliance on Hammond organ sounds that's not quite as pronounced on the band's other releases; on most tracks, this creates a rump-shaking groove that manages to get a step or two beyond traditional surf revival conventions."


Tracklist:

01. Soul Pilgrim
02. Steel Pier
03. Plymouth Rock
04. Scatter Shield
05. Backyard Compost
06. Morpheus
07. Spoke
08. Shit Sandwich
09. Pilgrim Stomp
10. Beach Creep
11. Action Plus
12. Small Craft Advisory
13. Shootin' The Pier
14. Haunted House Of Rock '95
15. Let's Go To The Beach

Thanks to cr+!

Exact Audio Copy V0.99 prebeta 5 from 4. May 2009

EAC extraction logfile from 23. January 2010, 21:33

Satan's Pilgrims / Soul Pilgrim

Used drive : ASUS DRW-2014L1T Adapter: 1 ID: 0

Read mode : Secure
Utilize accurate stream : Yes
Defeat audio cache : Yes
Make use of C2 pointers : No

Read offset correction

: 6
Overread into Lead-In and Lead-Out : No
Fill up missing offset samples with silence : Yes
Delete leading and trailing silent blocks : No
Null samples used in CRC calculations : Yes
Used interface
: Installed external ASPI interface

Used output format : Internal WAV Routines
Sample format : 44.100 Hz; 16 Bit; Stereo

TOC of the extracted CD Track | Start | Length | Start sector | End sector
--1 | 0:00.00 | 2:41.32 | 0 | 12106 2 | 2:41.32 | 2:26.38 | 12107 | 23094 3 | 5:07.70 | 2:12.30 | 23095 | 33024 4 | 7:20.25 | 2:07.00 | 33025 | 42549 5 | 9:27.25 | 2:45.07 | 42550 | 54931 6 | 12:12.32 | 2:39.33 | 54932 | 66889 7 | 14:51.65 | 2:07.32 | 66890 | 76446 8 | 16:59.22 | 3:35.55 | 76447 | 92626 9 | 20:35.02 | 3:09.13 | 92627 | 106814
10 | 23:44.15 | 2:35.52 | 106815 | 118491
11 | 26:19.67 | 2:20.50 | 118492 | 129041
12 | 28:40.42 | 2:41.30 | 129042 | 141146
13 | 31:21.72 | 2:55.03 | 141147 | 154274
14 | 34:17.00 | 3:37.17 | 154275 | 170566
15 | 37:54.17 | 2:52.58 | 170567 | 183524

Range status and errors

Selected range Filename C:\Documents and Settings\andrea\My Documents\hqshare\Satan's Pilgrims - Soul Pilgrim\Satan's Pilgrims - Soul Pilgrim.wav Peak level 100.0 %
Range quality 99.9 %
Copy CRC 1D03E413
Copy OK

No errors occurred


AccurateRip summary

Track 1 accurately ripped (confidence 1) [0AFED903]
Track 2 accurately ripped (confidence 1) [2F4444E1]
Track 3 accurately ripped (confidence 1) [EABA98B9]
Track 4 accurately ripped (confidence 1) [7E23566F]
Track 5 accurately ripped (confidence 1) [E6620846]
Track 6 accurately ripped (confidence 1) [300D4343]
Track 7 accurately ripped (confidence 1) [F82C54EC]
Track 8 accurately ripped (confidence 1) [8C9C708C]
Track 9 accurately ripped (confidence 1) [A615C98F]
Track 10 accurately ripped (confidence 1) [C7D8A288]
Track 11 accurately ripped (confidence 1) [133F569D]
Track 12 accurately ripped (confidence 1) [9E255492]
Track 13 accurately ripped (confidence 1) [CF350893]
Track 14 accurately ripped (confidence 1) [D04453EA]
Track 15 accurately ripped (confidence 1) [75D96DEF]

All tracks accurately ripped

End of status report

All covers included in both types of archives.
DOWNLOAD LINKS
Buy Premium From My Links To Get Resumable Support & Max Speed & To Support Me


Links are Interchangeable - No Password - Single Extraction
Direct Download

Tags: Pilgrims, Pilgrim, uploaD

Satan's Pilgrims - Soul Pilgrim (1995) Re-uploaD Download via Hotfile Rapidshare Fileserve Megaupload & FileSonic, Satan's Pilgrims - Soul Pilgrim (1995) Re-uploaD free torrent downloads included crack, serial, keygen.Satan's Pilgrims - Soul Pilgrim (1995) Re-uploaD Fast Download via Rapidshare Hotfile Fileserve Filesonic Megaupload, Satan's Pilgrims - Soul Pilgrim (1995) Re-uploaD Torrents and Emule Download or anything related.
Leave a Comment
Your Name:
E-Mail:
Add Comments:

Enter Code: