John Zorn - The Classic Guide to Strategy (1996)

Download Now

John Zorn - The Classic Guide to Strategy (1996)

John Zorn - The Classic Guide to Strategy (1996)
EAC | FLAC | Image (Cue&Log) ~ 423 Mb (incl 5%) | Mp3 (CBR320) ~ 209 Mb (incl 5%) | Scans included
Genre: Avant-Garde Jazz, Free Improvisation, Modern Composition | Label: Tzadic | # TZ7305 | Time: 01:17:58

"The Classic Guide to Strategy is a compilation album by John Zorn featuring his two early solo records The Classic Guide to Strategy Volume One (1983), (tracks 1-2) and the Classic Guide to Strategy Volume Two (1985), (tracks 3-8). The albums were first released on vinyl on Lumina Records in and later re-released on Tzadik Records in 1996 as a single CD."

"John Zorn's initial reputation was established as a particularly idiosyncratic & in-your-face free-jazz saxophonist who incorporated an array of duck-calls into his work; he's since become better known for the studio-based genre-mixing of albums like _Spillane_ or the more straightforward jazz-based improvisation of the Masada discs, but his earlier style deserves attention too, & this is an excellent start. Originally two LPs recorded in the mid-1980s (one track has been removed to fit them both on a single CD), _The Classic Guide to Strategy_ is a solo disc of astounding bizarreness. Despite its performances' being cut in real time, they are as obsessed with the discontinuous jump-cut as Zorn's studio work: his procedure (as the photos in the liner notes shows) was to carefully set up a table covered with an array of duck-calls, clarinets and saxophones in such a way as to permit the instantaneous switch from one instrument to the next. The two LPs are somewhat different in approach--the first contains just two long tracks, which often contain sudden silences between bursts of sound; the second contains shorter, intenser tracks that don't let up for a moment.

The collage of cries, burbles, honks, sighs and fragments of music is unique, even among Zorn's various output. It's a fine disc, through the sheer singularity and intensity of purpose that Zorn evinces on it. Fans of it might also want to check out the slightly earlier _Yankees_ (intermittently available on CD, it seems), which has Zorn pitting his duck calls against George Lewis and Derek Bailey.

Review by N. Dorward, Amazon.com
"


"The Classic Guide to Strategy, Volumes One & Two presents two Zorn albums from the mid-'80s which have long been out of print. Featuring a variety of manipulated saxophones, clarinets, and duck calls, the album plays at the edges of sounds traditionally associated with reed instruments. The album is not entirely accessible, especially Volume One -- if it were produced by a college student sowing his experimental oats after a giddy term at BAM, it would probably be labeled a failure for its eccentricity, abruptness, and lack of a coherent theme. However, when a line is drawn through Zorn's previous work, it ends up here -- the playfulness of sound, the variety of textures, the use of silence and space as part of the composition -- if the listener approaches this album expecting to find musical genius, he or she will not have to look too far. Zorn manufactures the sounds of animals, voices, squeaks, scraps of melodic lines, drowning (or at least dampened) beasts, and cartoon worlds with his reeds, paying homage to the work of Carl Stalling, as well as the sounds of Anthony Braxton and Evan Parker. The first two tracks on this collection represent the original volume one; the last five belonged to the original volume two. Stylistically, they are similar, with the second volume containing less spacial breaks between the musical bursts and each song paying tribute to avant-garde Japanese artists like Mori Ikue, Enoken, Kondo Toshinori, Katsumi Shigeru, Aoyama Michi, and Togawa Jun.

Review by Stacia Proefrock, Allmusic.com
"


John Zorn at Allmusic
John Zorn Website
John Zorn at Wiki

Tracklist:

01. Part 1 (19:36)
02. Part 2 (Cartoon Music) (19:32)
03. Aoyama Michi (11:15)
04. Enoken (03:21)
05. Katsumi Shigeru (06:34)
06. Kondo Toshinori (06:04)
07. Togawa Jun (08:54)
08. Mori Ikue (02:38)


Exact Audio Copy V1.0 beta 1 from 15. November 2010

EAC extraction logfile from 9. March 2011, 22:05

John Zorn / The Classic Guide to Strategy

Used drive : MATSHITADVD-RAM UJ890AS Adapter: 0 ID: 1

Read mode : Secure
Utilize accurate stream : Yes
Defeat audio cache : Yes
Make use of C2 pointers : No

Read offset correction

: 102
Overread into Lead-In and Lead-Out : No
Fill up missing offset samples with silence : Yes
Delete leading and trailing silent blocks : No
Null samples used in CRC calculations : Yes
Used interface
: Native Win32 interface for Win NT & 2000

Used output format : User Defined Encoder
Selected bitrate : 128 kBit/s
Quality : High
Add ID3 tag : No
Command line compressor : C:\Program Files (x86)\Exact Audio Copy\FLAC\FLAC.EXE
Additional command line options : -6 -V -T "ARTIST=%a" -T "TITLE=%t" -T "ALBUM=%g" -T "DATE=%y" -T "TRACKNUMBER=%n" -T "GENRE=%m" -T "COMMENT=%e" %j--picture="%i"%j %s -o %d

TOC of the extracted CD Track | Start | Length | Start sector | End sector
--1 | 0:00.00 | 19:36.45 | 0 | 88244 2 | 19:36.45 | 19:32.50 | 88245 | 176194 3 | 39:09.20 | 11:15.00 | 176195 | 226819 4 | 50:24.20 | 3:21.55 | 226820 | 241949 5 | 53:46.00 | 6:34.05 | 241950 | 271504 6 | 60:20.05 | 6:04.30 | 271505 | 298834 7 | 66:24.35 | 8:54.47 | 298835 | 338931 8 | 75:19.07 | 2:38.65 | 338932 | 350846

Range status and errors

Selected range Filename D:\Music\John Zorn - The Classic Guide to Strategy.wav Peak level 98.8 %
Extraction speed 0.0 X
Range quality 100.0 %
Test CRC FEDE3CED
Copy CRC FEDE3CED
Copy OK

No errors occurred


AccurateRip summary

Track 1 accurately ripped (confidence 7) [FBD0A65D]
Track 2 accurately ripped (confidence 7) [0310F83B]
Track 3 accurately ripped (confidence 7) 8245533
Track 4 accurately ripped (confidence 7) [FF9255FA]
Track 5 accurately ripped (confidence 7) [F2E3552F]
Track 6 accurately ripped (confidence 6) [DEC5969B]
Track 7 accurately ripped (confidence 7) [78EC0D73]
Track 8 accurately ripped (confidence 6) [CAD50C60]

All tracks accurately ripped

End of status report

[CUETools log; Date: 04.09.2015 13:47:14; Version: 2.1.4]
[CTDB TOCID: UtibhEDSmBlmB3zlyQZSOY8Wr7Q-] found.
Track | CTDB Status
1 | (8/8) Accurately ripped
2 | (8/8) Accurately ripped
3 | (5/8) Accurately ripped, or (3/8) differs in 1 samples @03:56:40
4 | (8/8) Accurately ripped
5 | (8/8) Accurately ripped
6 | (6/8) Accurately ripped, or (1/8) differs in 67 samples @05:07:26
7 | (7/8) Accurately ripped
8 | (7/8) Accurately ripped
[AccurateRip ID: 001e6a71-00bd649c-6b124508] found.
Track [ CRC | V2 ] Status
01 [fbd0a65d|f6ec30be] (07+05/12) Accurately ripped
02 [0310f83b|1ccb7b1d] (07+04/11) Accurately ripped
03 8245533|f311a510 (07+04/11) Accurately ripped
04 [ff9255fa|ba329aff] (07+04/11) Accurately ripped
05 [f2e3552f|052bc6df] (07+04/11) Accurately ripped
06 [dec5969b|7745030d] (06+02/08) Accurately ripped
07 [78ec0d73|99bc7fe2] (07+05/12) Accurately ripped
08 [cad50c60|fc1a6d8e] (06+04/10) Accurately ripped

Track Peak [ CRC32 ] [W/O NULL] [ LOG ]
-- 98,8 [FEDE3CED] [993C2905] CRC32
01 98,8 [6FAAADF3] [C5C07F12]
02 98,8 [ABC15A42] [1390B34A]
03 98,8 [0B45958B] [842F3C0D]
04 91,5 [A1702FB7] 5588C22
05 98,8 [6343826D] [A14C0A1C]
06 98,8 [9FFCD6B7] [18E9927E]
07 98,8 [73247880] [AA54C9F2]
08 98,8 [1E4BD322] [96B5EE45]

foobar2000 1.2 / Dynamic Range Meter 1.1.1
log date: 2015-09-04 13:43:45

Analyzed: John Zorn / The Classic Guide to Strategy

DR Peak RMS Duration Track

DR14 -0.10 dB -19.36 dB 19:37 01-Part 1
DR16 -0.10 dB -21.21 dB 19:33 02-Part 2 (Cartoon Music)
DR12 -0.10 dB -15.58 dB 11:15 03-Aoyama Michi
DR12 -0.77 dB -16.74 dB 3:22 04-Enoken
DR11 -0.10 dB -15.45 dB 6:34 05-Katsumi Shigeru
DR11 -0.10 dB -14.50 dB 6:04 06-Kondo Toshinori
DR11 -0.10 dB -15.33 dB 8:55 07-Togawa Jun
DR13 -0.10 dB -17.65 dB 2:39 08-Mori Ikue

Number of tracks: 8
Official DR value: DR13

Samplerate: 44100 Hz
Channels: 2
Bits per sample: 16
Bitrate: 687 kbps
Codec: FLAC

John Zorn - The Classic Guide to Strategy (1996)

John Zorn - The Classic Guide to Strategy (1996)

All thanks to original releaser - ZarazaNat
Password: designol

DOWNLOAD:
Buy Premium To Support Me & Get Resumable Support & Max Speed


Links are Interchangeable - No Password
Direct Download

Tags: Classic, Strategy

John Zorn - The Classic Guide to Strategy (1996) Download via Hotfile Rapidshare Fileserve Megaupload & FileSonic, John Zorn - The Classic Guide to Strategy (1996) free torrent downloads included crack, serial, keygen.John Zorn - The Classic Guide to Strategy (1996) Fast Download via Rapidshare Hotfile Fileserve Filesonic Megaupload, John Zorn - The Classic Guide to Strategy (1996) Torrents and Emule Download or anything related.
Leave a Comment
Your Name:
E-Mail:
Add Comments:

Enter Code: