Kraan - Psychedelic Man (2007) [Limited Edition] Bonus DVD

Download Now

Kraan - Psychedelic Man (2007) [Limited Edition] Bonus DVD

Kraan - Psychedelic Man (2007)
DVD5 | MPEG-2, PAL 4:3 (720x576), 25.000 fps, VBR 9800 Kbps (max) | DD 2.0, 192 Kbps
Scans Included (PNG, 600 dpi) | ~ 3,77 Gb | RAR 5% Recovery
Progressive/Kraut/Jazz Rock | 00:57:40 | EMI #00946 3 89171 2 0

"Kraan is a German band based in Ulm and formed in 1970. It had several minor hits through the 1970s and 1980s. After a break of ten years, the group reunited in 2000. Their early style can be described as Krautrock that turned later to fusion, combining elements of both rock and jazz. DVD offers 6 songs performed at Finkenbach Festival/Germany in 2005..."

Prog Archives | Wiki | Discogs | All Music
***************

Kraan - Psychedelic Man (2007) [Limited Edition] Bonus DVD

Track List - Live At Finkenbach Festival 2005:

01. Yaqui Yagua [08:23]
02. Vollgas Ahoi [07:37]
03. Kraan Arabia [07:54]
04. Hallo Ja Ja, I Don't Know [03:29]
05. Borgward [12:35]
06. Nam Nam [17:42]

Line-up / Musicians:

Peter Wolbrandt - guitar, vocals
Ingo Bischof - keyboards
Jan Fride - drums
Hellmut Hattler - bass, vocals

General
Complete name : K:\_002\Kraan - Psychedelic Man (2007) DVD\VIDEO_TS\VTS_02_1.VOB
Format
: MPEG-PS
File size
: 1 024 MiB
Duration
: 17mn 36s
Overall bit rate mode : Variable
Overall bit rate : 8 130 Kbps

Video
ID : 224 (0xE0)
Format
: MPEG Video
Format version : Version 2
Format profile : [email protected]
Format settings, BVOP : Yes
Format settings, Matrix : Default
Format settings, GOP : M=3, N=15
Duration
: 17mn 36s
Bit rate mode : Variable
Bit rate
: 7 776 Kbps
Width
: 720 pixels
Height
: 576 pixels
Display aspect ratio : 4:3
Frame rate
: 25.000 fps
Standard
: PAL
Color space
: YUV
Chroma subsampling

: 4:2:0
Bit depth
: 8 bits
Compression mode : Lossy
Bits/(Pixel*Frame)

: 0.750
Stream size
: 979 MiB (96%)

Audio
ID : 189 (0xBD)-128 (0x80)
Format
: AC-3
Format/Info
: Audio Coding 3
Mode extension : CM (complete main)
Format settings, Endianness : Big
Muxing mode
: DVD-Video
Duration
: 17mn 36s
Bit rate mode : Constant
Bit rate
: 192 Kbps
Channel(s)
: 2 channels
Channel positions: Front: L R
Sampling rate : 48.0 KHz
Bit depth
: 16 bits
Compression mode : Lossy
Stream size
: 24.2 MiB (2%)

Menu

General
Complete name : K:\_002\Kraan - Psychedelic Man (2007) DVD\VIDEO_TS\VTS_02_2.VOB
Format
: MPEG-PS
File size
: 1 024 MiB
Duration
: 16mn 49s
Overall bit rate mode : Variable
Overall bit rate : 8 506 Kbps

Video
ID : 224 (0xE0)
Format
: MPEG Video
Format version : Version 2
Format profile : [email protected]
Format settings, BVOP : Yes
Format settings, Matrix : Default
Format settings, GOP : M=3, N=15
Format settings, picture structure : Frame
Duration
: 16mn 49s
Bit rate mode : Variable
Bit rate
: 8 145 Kbps
Maximum bit rate : 9 800 Kbps
Width
: 720 pixels
Height
: 576 pixels
Display aspect ratio : 4:3
Frame rate
: 25.000 fps
Standard
: PAL
Color space
: YUV
Chroma subsampling

: 4:2:0
Bit depth
: 8 bits
Scan type
: Interlaced
Scan order
: Top Field First
Compression mode : Lossy
Bits/(Pixel*Frame)

: 0.786
Time code of first frame : 00:17:37:03
Time code source : Group of pictures header
GOP, Open/Closed : Open
Stream size
: 980 MiB (96%)

Audio
ID : 189 (0xBD)-128 (0x80)
Format
: AC-3
Format/Info
: Audio Coding 3
Mode extension : CM (complete main)
Format settings, Endianness : Big
Muxing mode
: DVD-Video
Duration
: 16mn 49s
Bit rate mode : Constant
Bit rate
: 192 Kbps
Channel(s)
: 2 channels
Channel positions: Front: L R
Sampling rate : 48.0 KHz
Bit depth
: 16 bits
Compression mode : Lossy
Delay relative to video : -688ms
Stream size
: 23.1 MiB (2%)

Menu

General
Complete name : K:\_002\Kraan - Psychedelic Man (2007) DVD\VIDEO_TS\VTS_02_3.VOB
Format
: MPEG-PS
File size
: 1 024 MiB
Duration
: 16mn 56s
Overall bit rate mode : Variable
Overall bit rate : 8 454 Kbps

Video
ID : 224 (0xE0)
Format
: MPEG Video
Format version : Version 2
Format profile : [email protected]
Format settings, BVOP : Yes
Format settings, Matrix : Default
Format settings, GOP : M=3, N=15
Format settings, picture structure : Frame
Duration
: 16mn 55s
Bit rate mode : Variable
Bit rate
: 8 094 Kbps
Maximum bit rate : 9 800 Kbps
Width
: 720 pixels
Height
: 576 pixels
Display aspect ratio : 4:3
Frame rate
: 25.000 fps
Standard
: PAL
Color space
: YUV
Chroma subsampling

: 4:2:0
Bit depth
: 8 bits
Scan type
: Interlaced
Scan order
: Top Field First
Compression mode : Lossy
Bits/(Pixel*Frame)

: 0.781
Time code of first frame : 00:34:26:23
Time code source : Group of pictures header
GOP, Open/Closed : Open
Stream size
: 980 MiB (96%)

Audio
ID : 189 (0xBD)-128 (0x80)
Format
: AC-3
Format/Info
: Audio Coding 3
Mode extension : CM (complete main)
Format settings, Endianness : Big
Muxing mode
: DVD-Video
Duration
: 16mn 56s
Bit rate mode : Constant
Bit rate
: 192 Kbps
Channel(s)
: 2 channels
Channel positions: Front: L R
Sampling rate : 48.0 KHz
Bit depth
: 16 bits
Compression mode : Lossy
Delay relative to video : -568ms
Stream size
: 23.3 MiB (2%)

Menu

General
Complete name : K:\_002\Kraan - Psychedelic Man (2007) DVD\VIDEO_TS\VTS_02_4.VOB
Format
: MPEG-PS
File size
: 344 MiB
Overall bit rate mode : Variable

Video
ID : 224 (0xE0)
Format
: MPEG Video
Format version : Version 2
Format profile : [email protected]
Format settings, BVOP : Yes
Format settings, Matrix : Default
Format settings, GOP : M=3, N=15
Format settings, picture structure : Frame
Bit rate mode : Variable
Maximum bit rate : 9 800 Kbps
Width
: 720 pixels
Height
: 576 pixels
Display aspect ratio : 4:3
Frame rate
: 25.000 fps
Standard
: PAL
Color space
: YUV
Chroma subsampling

: 4:2:0
Bit depth
: 8 bits
Scan type
: Interlaced
Scan order
: Top Field First
Compression mode : Lossy
Time code of first frame : 00:51:22:18
Time code source : Group of pictures header
GOP, Open/Closed : Open

Audio
ID : 189 (0xBD)-128 (0x80)
Format
: AC-3
Format/Info
: Audio Coding 3
Mode extension : CM (complete main)
Format settings, Endianness : Big
Muxing mode
: DVD-Video
Bit rate mode : Constant
Bit rate
: 192 Kbps
Channel(s)
: 2 channels
Channel positions: Front: L R
Sampling rate : 48.0 KHz
Bit depth
: 16 bits
Compression mode : Lossy
Delay relative to video : -304ms

Menu

Kraan - Psychedelic Man (2007) [Limited Edition] Bonus DVD

Kraan - Psychedelic Man (2007) [Limited Edition] Bonus DVD

Kraan - Psychedelic Man (2007) [Limited Edition] Bonus DVD

Kraan - Psychedelic Man (2007) [Limited Edition] Bonus DVD

Kraan - Psychedelic Man (2007) [Limited Edition] Bonus DVD

Kraan - Psychedelic Man (2007) [Limited Edition] Bonus DVD

Kraan - Psychedelic Man (2007) [Limited Edition] Bonus DVD

Kraan - Psychedelic Man (2007) [Limited Edition] Bonus DVD

Kraan - Psychedelic Man (2007) [Limited Edition] Bonus DVD

Kraan - Psychedelic Man (2007) [Limited Edition] Bonus DVD

Kraan - Psychedelic Man (2007) [Limited Edition] Bonus DVD



DOWNLOAD LINKS:
Buy Premium To Support Me & Get Resumable Support & Max Speed


Links are Interchangeable - No Password - Single Extraction
Direct Download

Tags: Psychedelic, Limited

Kraan - Psychedelic Man (2007) [Limited Edition] Bonus DVD Download via Hotfile Rapidshare Fileserve Megaupload & FileSonic, Kraan - Psychedelic Man (2007) [Limited Edition] Bonus DVD free torrent downloads included crack, serial, keygen.Kraan - Psychedelic Man (2007) [Limited Edition] Bonus DVD Fast Download via Rapidshare Hotfile Fileserve Filesonic Megaupload, Kraan - Psychedelic Man (2007) [Limited Edition] Bonus DVD Torrents and Emule Download or anything related.
Leave a Comment
Your Name:
E-Mail:
Add Comments:

Enter Code: