B.B. King - Mr. Blues, B.B. King (1993)

Download Now

B.B. King - Mr. Blues, B.B. King (1993)

B.B. King - Mr. Blues, B.B. King (1993)
EAC Rip | FLAC (Img) + Cue + Log ~ 185 Mb | MP3 CBR320 ~ 86 Mb
Scans Included (PNG, 300 dpi) | RAR 5% Recovery
Blues | King Blues #KBCD-467/DIDX 017267

"This compilation includes early recordings by B.B. King, in particular, from the album My Kind Of Blues (1961)."

Wiki | Discogs | All Music
***************

B.B. King - Mr. Blues, B.B. King (1993)

Track List:

01. B.B. Boogie [03:21]
02. Walkin' And Cryin' [03:29]
03. It's My Own Fault [03:35]
04. The Other Night Blues [03:36]
05. Mr. Pawnbroker [03:16]
06. You've Done Lost Your Good Thing Now [05:16]
07. Catfish Blues [02:29]
08. Save A Seat For Me [03:05]

Exact Audio Copy V0.99 prebeta 5 from 4. May 2009

EAC extraction logfile from 21. April 2013, 7:27

B.B. King / Mr. Blues.(Highland Mus.USA)

Used drive : Optiarc DVD RW AD-5280S Adapter: 2 ID: 0

Read mode : Secure
Utilize accurate stream : Yes
Defeat audio cache : Yes
Make use of C2 pointers : No

Read offset correction

: 48
Overread into Lead-In and Lead-Out : No
Fill up missing offset samples with silence : Yes
Delete leading and trailing silent blocks : No
Null samples used in CRC calculations : Yes
Used interface
: Native Win32 interface for Win NT & 2000

Used output format : User Defined Encoder
Selected bitrate : 896 kBit/s
Quality : High
Add ID3 tag : No
Command line compressor : C:\Program Files (x86)\Exact Audio Copy\wavpack.exe
Additional command line options : -hlm %s

TOC of the extracted CD Track | Start | Length | Start sector | End sector
--1 | 0:00.00 | 3:20.18 | 0 | 15017 2 | 3:20.18 | 3:28.35 | 15018 | 30652 3 | 6:48.53 | 3:35.00 | 30653 | 46777 4 | 10:23.53 | 3:35.05 | 46778 | 62907 5 | 13:58.58 | 3:15.70 | 62908 | 77602 6 | 17:14.53 | 5:16.00 | 77603 | 101302 7 | 22:30.53 | 2:28.47 | 101303 | 112449 8 | 24:59.25 | 3:04.18 | 112450 | 126267

Range status and errors

Selected range Filename C:\Users\Bishop\Desktop\B.B. King - Mr. Blues.(1993.Highland Mus.USA).wv\B.B. King - Mr. Blues.(Highland Mus.USA).wav Peak level 100.0 %
Range quality 99.9 %
Test CRC 1C106C3F
Copy CRC 1C106C3F
Copy OK

No errors occurred


AccurateRip summary

Track 1 not present in database
Track 2 not present in database
Track 3 not present in database
Track 4 not present in database
Track 5 not present in database
Track 6 not present in database
Track 7 not present in database
Track 8 not present in database

None of the tracks are present in the AccurateRip database

End of status report

foobar2000 1.2.6 / Dynamic Range Meter 1.1.1
log date: 2015-09-07 02:23:55

Analyzed: B.B. King / Mr. Blues.(Highland Mus.USA)

DR Peak RMS Duration Track

DR10 0.00 dB -11.69 dB 3:20 01-B.B. Boogie
DR11 -0.07 dB -13.20 dB 3:28 02-Walkin' And Cryin'
DR11 -0.64 dB -13.60 dB 3:35 03-It's My Own Fault
DR10 0.00 dB -12.46 dB 3:35 04-The Other Night Blues
DR11 0.00 dB -13.16 dB 3:16 05-Mr. Pawnbroker
DR13 -0.29 dB -15.62 dB 5:16 06-You've Done Lost Your Good Thing Now
DR11 0.00 dB -12.70 dB 2:29 07-Catfish Blues
DR13 0.00 dB -15.09 dB 3:04 08-Save A Seat For Me

Number of tracks: 8
Official DR value: DR11

Samplerate: 44100 Hz
Channels: 2
Bits per sample: 16
Bitrate: 792 kbps
Codec: FLAC

[CUETools log; Date: 07.09.2015 2:22:50; Version: 2.1.5]
[CTDB TOCID: FPqkI0846o65SfOHm02OvpLJ.1w-] disk not present in database.
[AccurateRip ID: 0008be35-003a821f-40069308] disk not present in database.

Track Peak [ CRC32 ] [W/O NULL] [ LOG ]
-- 100,0 [1C106C3F] [7D4D993E] CRC32
01 100,0 [60BD937B] [214C4883]
02 99,2 [E1B2E747] [46092F79]
03 92,8 [F5490A09] [6EE9CCD3]
04 100,0 4C51C24 [1269B000]
05 100,0 [07E66109] [737B6442]
06 96,7 [47BD5C04] [C7015E40]
07 100,0 [58617D7C] [43122F13]
08 100,0 [FB22B59A] [0C2E6BBA]

B.B. King - Mr. Blues, B.B. King (1993)

B.B. King - Mr. Blues, B.B. King (1993)


DOWNLOAD LINKS
Buy Premium From My Links To Get Resumable Support & Max Speed & To Support Me


Links are Interchangeable - No Password - Single Extraction
Direct Download

B.B. King - Mr. Blues, B.B. King (1993) Download via Hotfile Rapidshare Fileserve Megaupload & FileSonic, B.B. King - Mr. Blues, B.B. King (1993) free torrent downloads included crack, serial, keygen.B.B. King - Mr. Blues, B.B. King (1993) Fast Download via Rapidshare Hotfile Fileserve Filesonic Megaupload, B.B. King - Mr. Blues, B.B. King (1993) Torrents and Emule Download or anything related.
Leave a Comment
Your Name:
E-Mail:
Add Comments:

Enter Code: