Miguel Bose - Original Album Series (2014) [5CD Set] {Warner Music Spain}

Download Now


Miguel Bose - Original Album Series (2014) [5CD Set] {Warner Music Spain}
Miguel Bose - Original Album Series (2014) [5CD Set] {Warner Music Spain}
EAC rip (secure mode) | FLAC (tracks)+CUE+LOG -> 1.69 Gb | MP3 @320 -> 651 Mb
Full Artwork @ 300 dpi (png) -> 68 Mb | 5% repair rar
© 2014 Warner Music Spain / WEA | 2564622497
Pop / Latin Pop / International

"5 classic albums from one of Spain's best artists, repackaged with their original audio and artwork into a fantastically compact and collectable set. Perfect for discovering new music or remembering old collections that may have been lost along the way. Miguel Bosé has been a force in Latin music in a career that has spanned over 20 albums, roles in more than 35 films, his own television show, and work as a theatre director. With Picasso and Ernest Hemingway among his family friends, Bosé grew up in the arts, constantly travelling from his Panama homeland to Milan, New York, London, Paris, and Madrid. He made his film debut at the age of 15, and at age 21, he began his singing career which eventually lead to international pop stardom."

tracklist:

Miguel Bose - Original Album Series (2014) [5CD Set] {Warner Music Spain}

CD1 Salamandra (1986)


01 - Nena
02 - Salamandra
03 - Aire Soy
04 - You Live In Me
05 - Amazonas
06 - Todo Un Hombre
07 - Cuando El Tiempo Quema
08 - Partisano
09 - Amapola Besame

Exact Audio Copy V1.0 beta 3 from 29. August 2011

EAC extraction logfile from 23. October 2014, 15:20

Miguel Bose / Salamandra

Used drive : ASUS SDRW-08D2S-U Adapter: 1 ID: 0

Read mode : Secure
Utilize accurate stream : Yes
Defeat audio cache : Yes
Make use of C2 pointers : No

Read offset correction

: 6
Overread into Lead-In and Lead-Out : No
Fill up missing offset samples with silence : Yes
Delete leading and trailing silent blocks : No
Null samples used in CRC calculations : Yes
Used interface
: Native Win32 interface for Win NT & 2000
Gap handling
: Appended to previous track

Used output format : User Defined Encoder
Selected bitrate : 128 kBit/s
Quality : High
Add ID3 tag : No
Command line compressor : C:\Program Files (x86)\Exact Audio Copy\Flac\flac.exe
Additional command line options : -8 -V -T "ARTIST=%artist%" -T "TITLE=%title%" -T "ALBUM=%albumtitle%" -T "DATE=%year%" -T "TRACKNUMBER=%tracknr%" -T "TOTALTRACKS=%numtracks%" -T "GENRE=%genre%" -T "ALBUMARTIST=%albumartist%" -T "ALBUM ARTIST=%albumartist%" -T "COMMENT=EAC Secure Mode, Test & Copy, AccurateRip, FLAC -8" %source%

TOC of the extracted CD Track | Start | Length | Start sector | End sector
--1 | 0:00.00 | 4:51.57 | 0 | 21881 2 | 4:51.57 | 4:03.55 | 21882 | 40161 3 | 8:55.37 | 4:16.15 | 40162 | 59376 4 | 13:11.52 | 4:08.08 | 59377 | 77984 5 | 17:19.60 | 4:40.45 | 77985 | 99029 6 | 22:00.30 | 4:25.32 | 99030 | 118936 7 | 26:25.62 | 4:05.68 | 118937 | 137379 8 | 30:31.55 | 4:17.65 | 137380 | 156719 9 | 34:49.45 | 3:34.22 | 156720 | 172791

Track 1 Filename D:\Subir\01 - Nena.wav Pre-gap length 0:00:02.00 Peak level 97.7 %
Extraction speed 1.1 X
Track quality 100.0 %
Test CRC A51B90C0
Copy CRC A51B90C0
Cannot be verified as accurate (confidence 1) [827E383D], AccurateRip returned [3AD8115A] (AR v2)
Copy OK

Track 2 Filename D:\Subir\02 - Salamandra.wav Pre-gap length 0:00:01.12 Peak level 89.4 %
Extraction speed 1.2 X
Track quality 100.0 %
Test CRC 7DDB9DF5
Copy CRC 7DDB9DF5
Cannot be verified as accurate (confidence 1) [4DEB0E10], AccurateRip returned [0DEEFC01] (AR v2)
Copy OK

Track 3 Filename D:\Subir\03 - Aire Soy.wav Pre-gap length 0:00:02.55 Peak level 86.3 %
Extraction speed 1.3 X
Track quality 100.0 %
Test CRC 149AC7BF
Copy CRC 149AC7BF
Cannot be verified as accurate (confidence 1) [5B6AAFC2], AccurateRip returned [A6E312B2] (AR v2)
Copy OK

Track 4 Filename D:\Subir\04 - You Live In Me.wav Pre-gap length 0:00:02.42 Peak level 89.0 %
Extraction speed 1.3 X
Track quality 100.0 %
Test CRC 6BA5D2FF
Copy CRC 6BA5D2FF
Cannot be verified as accurate (confidence 1) [7EB63B56], AccurateRip returned [4E377657] (AR v2)
Copy OK

Track 5 Filename D:\Subir\05 - Amazonas.wav Pre-gap length 0:00:02.00 Peak level 100.0 %
Extraction speed 1.4 X
Track quality 100.0 %
Test CRC 73BD404A
Copy CRC 73BD404A
Cannot be verified as accurate (confidence 1) [97E74F1D], AccurateRip returned [491E0B85] (AR v2)
Copy OK

Track 6 Filename D:\Subir\06 - Todo Un Hombre.wav Pre-gap length 0:00:01.05 Peak level 86.1 %
Extraction speed 1.5 X
Track quality 100.0 %
Test CRC 92F6A0A2
Copy CRC 92F6A0A2
Cannot be verified as accurate (confidence 1) [8224A12D], AccurateRip returned [35523487] (AR v2)
Copy OK

Track 7 Filename D:\Subir\07 - Cuando El Tiempo Quema.wav Pre-gap length 0:00:02.12 Peak level 97.4 %
Extraction speed 1.5 X
Track quality 100.0 %
Test CRC 892A4C1A
Copy CRC 892A4C1A
Cannot be verified as accurate (confidence 1) [690BE042], AccurateRip returned [D0F81E95] (AR v2)
Copy OK

Track 8 Filename D:\Subir\08 - Partisano.wav Pre-gap length 0:00:01.13 Peak level 86.7 %
Extraction speed 1.6 X
Track quality 100.0 %
Test CRC F27B1444
Copy CRC F27B1444
Cannot be verified as accurate (confidence 1) [0F8602C7], AccurateRip returned [3A4B2246] (AR v2)
Copy OK

Track 9 Filename D:\Subir\09 - Amapola Besame.wav Pre-gap length 0:00:01.55 Peak level 88.5 %
Extraction speed 1.6 X
Track quality 100.0 %
Test CRC 6096E15C
Copy CRC 6096E15C
Cannot be verified as accurate (confidence 1) [CB6C641A], AccurateRip returned 54A93C7 (AR v2)
Copy OK

No tracks could be verified as accurate
You may have a different pressing from the one(s) in the database

No errors occurred

End of status report

- CUETools DB Plugin V2.1.3

[CTDB TOCID: 8WYA0ovX1gFsrUtEcXyNcaoCBrE-] found, Submit result: 8WYA0ovX1gFsrUtEcXyNcaoCBrE- has been confirmed
[21990cae] (3/3) Accurately ripped

==== Log checksum 350601DC23EE20C4364642B5AB65964790FC73346E5B8DC6D26B0F1D0C989C03 ====

Miguel Bose - Original Album Series (2014) [5CD Set] {Warner Music Spain}

Miguel Bose - Original Album Series (2014) [5CD Set] {Warner Music Spain}

CD2 XXX (1987)


01 - Quieres America
02 - Como un lobo
03 - Quien la mato
04 - Que no hay... (XXX)
05 - Over my head
06 - Duende
07 - Jonas y la Ballena
08 - Corazon infame
09 - Justine
10 - La gran ciudad

Exact Audio Copy V1.0 beta 3 from 29. August 2011

EAC extraction logfile from 23. October 2014, 16:00

Miguel Bose / XXX

Used drive : ASUS SDRW-08D2S-U Adapter: 1 ID: 0

Read mode : Secure
Utilize accurate stream : Yes
Defeat audio cache : Yes
Make use of C2 pointers : No

Read offset correction

: 6
Overread into Lead-In and Lead-Out : No
Fill up missing offset samples with silence : Yes
Delete leading and trailing silent blocks : No
Null samples used in CRC calculations : Yes
Used interface
: Native Win32 interface for Win NT & 2000
Gap handling
: Appended to previous track

Used output format : User Defined Encoder
Selected bitrate : 128 kBit/s
Quality : High
Add ID3 tag : No
Command line compressor : C:\Program Files (x86)\Exact Audio Copy\Flac\flac.exe
Additional command line options : -8 -V -T "ARTIST=%artist%" -T "TITLE=%title%" -T "ALBUM=%albumtitle%" -T "DATE=%year%" -T "TRACKNUMBER=%tracknr%" -T "TOTALTRACKS=%numtracks%" -T "GENRE=%genre%" -T "ALBUMARTIST=%albumartist%" -T "ALBUM ARTIST=%albumartist%" -T "COMMENT=EAC Secure Mode, Test & Copy, AccurateRip, FLAC -8" %source%

TOC of the extracted CD Track | Start | Length | Start sector | End sector
--1 | 0:00.00 | 4:57.62 | 0 | 22336 2 | 4:57.62 | 3:58.13 | 22337 | 40199 3 | 8:56.00 | 3:20.55 | 40200 | 55254 4 | 12:16.55 | 6:41.50 | 55255 | 85379 5 | 18:58.30 | 4:16.40 | 85380 | 104619 6 | 23:14.70 | 5:08.25 | 104620 | 127744 7 | 28:23.20 | 5:00.25 | 127745 | 150269 8 | 33:23.45 | 4:32.00 | 150270 | 170669 9 | 37:55.45 | 4:41.62 | 170670 | 191806
10 | 42:37.32 | 5:54.43 | 191807 | 218399

Track 1 Filename D:\Subir\01 - Quieres America.wav Pre-gap length 0:00:02.00 Peak level 89.5 %
Extraction speed 2.5 X
Track quality 99.9 %
Test CRC 2D428E5F
Copy CRC 2D428E5F
Cannot be verified as accurate (confidence 4) [F5DED53C], AccurateRip returned [8027C7C9] (AR v2)
Copy OK

Track 2 Filename D:\Subir\02 - Como un lobo.wav Pre-gap length 0:00:02.65 Peak level 100.0 %
Extraction speed 3.1 X
Track quality 100.0 %
Test CRC FF9F1D4B
Copy CRC FF9F1D4B
Cannot be verified as accurate (confidence 4) [6036F3E5], AccurateRip returned [1AECEDED] (AR v2)
Copy OK

Track 3 Filename D:\Subir\03 - Quien la mato.wav Pre-gap length 0:00:02.10 Peak level 100.0 %
Extraction speed 3.2 X
Track quality 100.0 %
Test CRC B2D63F6E
Copy CRC B2D63F6E
Cannot be verified as accurate (confidence 4) [E640D61A], AccurateRip returned [474DFD5F] (AR v2)
Copy OK

Track 4 Filename D:\Subir\04 - Que no hay... (XXX).wav Pre-gap length 0:00:03.03 Peak level 81.2 %
Extraction speed 3.8 X
Track quality 100.0 %
Test CRC 2A315EBF
Copy CRC 2A315EBF
Cannot be verified as accurate (confidence 4) [9ED9C4D4], AccurateRip returned [73617E01] (AR v2)
Copy OK

Track 5 Filename D:\Subir\05 - Over my head.wav Pre-gap length 0:00:02.48 Peak level 100.0 %
Extraction speed 3.9 X
Track quality 100.0 %
Test CRC 269A9807
Copy CRC 269A9807
Cannot be verified as accurate (confidence 4) [F5E7F559], AccurateRip returned [1CAC9DF3] (AR v2)
Copy OK

Track 6 Filename D:\Subir\06 - Duende.wav Pre-gap length 0:00:01.12 Peak level 84.9 %
Extraction speed 4.1 X
Track quality 100.0 %
Test CRC 441CD4A6
Copy CRC 441CD4A6
Cannot be verified as accurate (confidence 4) [7BB45600], AccurateRip returned [1DF329B6] (AR v2)
Copy OK

Track 7 Filename D:\Subir\07 - Jonas y la Ballena.wav Pre-gap length 0:00:02.68 Peak level 100.0 %
Extraction speed 4.3 X
Track quality 100.0 %
Test CRC 7DB4B479
Copy CRC 7DB4B479
Cannot be verified as accurate (confidence 4) [D1C8A2E8], AccurateRip returned [3DB00BF6] (AR v2)
Copy OK

Track 8 Filename D:\Subir\08 - Corazon infame.wav Pre-gap length 0:00:03.20 Peak level 81.4 %
Extraction speed 4.5 X
Track quality 100.0 %
Test CRC AD3DE25B
Copy CRC AD3DE25B
Cannot be verified as accurate (confidence 4) A136881, AccurateRip returned [9E78B536] (AR v2)
Copy OK

Track 9 Filename D:\Subir\09 - Justine.wav Pre-gap length 0:00:02.15 Peak level 86.7 %
Extraction speed 3.9 X
Track quality 99.9 %
Test CRC 8089B4C5
Copy CRC 8089B4C5
Cannot be verified as accurate (confidence 4) [309D5BF2], AccurateRip returned [ED04536B] (AR v2)
Copy OK

Track 10 Filename D:\Subir\10 - La gran ciudad.wav Pre-gap length 0:00:01.74 Peak level 95.2 %
Extraction speed 4.3 X
Track quality 99.9 %
Test CRC D89D561F
Copy CRC D89D561F
Cannot be verified as accurate (confidence 4) [98A11523], AccurateRip returned [6A14F972] (AR v2)
Copy OK

No tracks could be verified as accurate
You may have a different pressing from the one(s) in the database

No errors occurred

End of status report

- CUETools DB Plugin V2.1.3

[CTDB TOCID: iMXX_U239ICQxw05Z7XAn1k3Ig0-] found, Submit result: iMXX_U239ICQxw05Z7XAn1k3Ig0- has been confirmed
[9411926a] (5/6) Accurately ripped
[fbc3ca0d] (1/6) No match

==== Log checksum 9A52E6686FC07A5DD47AB81E51865311F36B6A736DB79594B264C00F29CC9362 ====

Miguel Bose - Original Album Series (2014) [5CD Set] {Warner Music Spain}

Miguel Bose - Original Album Series (2014) [5CD Set] {Warner Music Spain}

CD 3 Los Chicos No Lloran (1990)


01 - Bambu
02 - Senza di te
03 - Manos vacias
04 - Hojas secas
05 - Si te cuentan que cai
06 - Nunca pasa nada
07 - Aquel sendero
08 - Otro
09 - Unica libera radio
10 - Los chicos no lloran
11 - Josephine
12 - Mix otono

Exact Audio Copy V1.0 beta 3 from 29. August 2011

EAC extraction logfile from 23. October 2014, 17:21

Miguel Bose / Los Chicos No Lloran

Used drive : ASUS SDRW-08D2S-U Adapter: 1 ID: 0

Read mode : Secure
Utilize accurate stream : Yes
Defeat audio cache : Yes
Make use of C2 pointers : No

Read offset correction

: 6
Overread into Lead-In and Lead-Out : No
Fill up missing offset samples with silence : Yes
Delete leading and trailing silent blocks : No
Null samples used in CRC calculations : Yes
Used interface
: Native Win32 interface for Win NT & 2000
Gap handling
: Appended to previous track

Used output format : User Defined Encoder
Selected bitrate : 128 kBit/s
Quality : High
Add ID3 tag : No
Command line compressor : C:\Program Files (x86)\Exact Audio Copy\Flac\flac.exe
Additional command line options : -8 -V -T "ARTIST=%artist%" -T "TITLE=%title%" -T "ALBUM=%albumtitle%" -T "DATE=%year%" -T "TRACKNUMBER=%tracknr%" -T "TOTALTRACKS=%numtracks%" -T "GENRE=%genre%" -T "ALBUMARTIST=%albumartist%" -T "ALBUM ARTIST=%albumartist%" -T "COMMENT=EAC Secure Mode, Test & Copy, AccurateRip, FLAC -8" %source%

TOC of the extracted CD Track | Start | Length | Start sector | End sector
--1 | 0:00.00 | 4:53.65 | 0 | 22039 2 | 4:53.65 | 4:05.70 | 22040 | 40484 3 | 8:59.60 | 4:44.02 | 40485 | 61786 4 | 13:43.62 | 3:40.00 | 61787 | 78286 5 | 17:23.62 | 4:43.05 | 78287 | 99516 6 | 22:06.67 | 3:54.03 | 99517 | 117069 7 | 26:00.70 | 4:11.02 | 117070 | 135896 8 | 30:11.72 | 4:50.20 | 135897 | 157666 9 | 35:02.17 | 5:00.58 | 157667 | 180224
10 | 40:03.00 | 3:37.62 | 180225 | 196561
11 | 43:40.62 | 4:40.73 | 196562 | 217634
12 | 48:21.60 | 3:39.10 | 217635 | 234069

Track 1 Filename D:\Subir\01 - Bambu.wav Pre-gap length 0:00:02.00 Peak level 95.5 %
Extraction speed 1.1 X
Track quality 100.0 %
Test CRC 7C798813
Copy CRC 7C798813
Cannot be verified as accurate (confidence 2) [3FFFDC4A], AccurateRip returned [C04DF90A] (AR v2)
Copy OK

Track 2 Filename D:\Subir\02 - Senza di te.wav Pre-gap length 0:00:00.30 Peak level 100.0 %
Extraction speed 1.2 X
Track quality 100.0 %
Test CRC 58EB3995
Copy CRC 58EB3995
Cannot be verified as accurate (confidence 2) 9822708, AccurateRip returned [A30567D1] (AR v2)
Copy OK

Track 3 Filename D:\Subir\03 - Manos vacias.wav Peak level 98.8 %
Extraction speed 1.3 X
Track quality 100.0 %
Test CRC 563C379B
Copy CRC 563C379B
Cannot be verified as accurate (confidence 2) [88AF3144], AccurateRip returned [CBB24234] (AR v2)
Copy OK

Track 4 Filename D:\Subir\04 - Hojas secas.wav Pre-gap length 0:00:00.32 Peak level 100.0 %
Extraction speed 1.3 X
Track quality 100.0 %
Test CRC C1A67586
Copy CRC C1A67586
Cannot be verified as accurate (confidence 2) [C80B430C], AccurateRip returned [0EAE65D1] (AR v2)
Copy OK

Track 5 Filename D:\Subir\05 - Si te cuentan que cai.wav Pre-gap length 0:00:00.17 Peak level 97.7 %
Extraction speed 1.4 X
Track quality 100.0 %
Test CRC E9140EB4
Copy CRC E9140EB4
Cannot be verified as accurate (confidence 2) [05194687], AccurateRip returned [9E9BC7E8] (AR v2)
Copy OK

Track 6 Filename D:\Subir\06 - Nunca pasa nada.wav Pre-gap length 0:00:00.32 Peak level 97.7 %
Extraction speed 1.3 X
Track quality 99.9 %
Test CRC 5C045A44
Copy CRC 5C045A44
Cannot be verified as accurate (confidence 2) [300C60C3], AccurateRip returned [30D7CC61] (AR v2)
Copy OK

Track 7 Filename D:\Subir\07 - Aquel sendero.wav Pre-gap length 0:00:00.38 Peak level 100.0 %
Extraction speed 1.5 X
Track quality 100.0 %
Test CRC D27B1EB2
Copy CRC D27B1EB2
Cannot be verified as accurate (confidence 2) [580D64DC], AccurateRip returned 2F4A94C (AR v2)
Copy OK

Track 8 Filename D:\Subir\08 - Otro.wav Pre-gap length 0:00:00.60 Peak level 100.0 %
Extraction speed 1.6 X
Track quality 100.0 %
Test CRC 066774FA
Copy CRC 066774FA
Cannot be verified as accurate (confidence 2) [48B9C614], AccurateRip returned [CF937631] (AR v2)
Copy OK

Track 9 Filename D:\Subir\09 - Unica libera radio.wav Pre-gap length 0:00:01.22 Peak level 100.0 %
Extraction speed 1.5 X
Track quality 99.9 %
Test CRC 18DC2FA7
Copy CRC 18DC2FA7
Cannot be verified as accurate (confidence 2) [F5D5AB46], AccurateRip returned [0B66FFA5] (AR v2)
Copy OK

Track 10 Filename D:\Subir\10 - Los chicos no lloran.wav Pre-gap length 0:00:01.08 Peak level 100.0 %
Extraction speed 1.6 X
Track quality 100.0 %
Test CRC 640F4253
Copy CRC 640F4253
Cannot be verified as accurate (confidence 2) [AA312CA3], AccurateRip returned [2777C236] (AR v2)
Copy OK

Track 11 Filename D:\Subir\11 - Josephine.wav Peak level 100.0 %
Extraction speed 1.8 X
Track quality 100.0 %
Test CRC 13633284
Copy CRC 13633284
Cannot be verified as accurate (confidence 2) [CBA41613], AccurateRip returned [38336E5B] (AR v2)
Copy OK

Track 12 Filename D:\Subir\12 - Mix otono.wav Pre-gap length 0:00:00.38 Peak level 97.7 %
Extraction speed 1.5 X
Track quality 99.9 %
Test CRC 9FB3B986
Copy CRC 9FB3B986
Cannot be verified as accurate (confidence 2) [614A2206], AccurateRip returned 0A7A343 (AR v2)
Copy OK

No tracks could be verified as accurate
You may have a different pressing from the one(s) in the database

No errors occurred

End of status report

- CUETools DB Plugin V2.1.3

[CTDB TOCID: kx1pphe977.XamxYwY5ysqFYjig-] found, Submit result: kx1pphe977.XamxYwY5ysqFYjig- has been confirmed
[81c79b53] (4/4) Accurately ripped

==== Log checksum B335F597E1DF32C5B77184850A1D556322ECC50C538673E4373EBC3EE1445CDB ====

Miguel Bose - Original Album Series (2014) [5CD Set] {Warner Music Spain}

Miguel Bose - Original Album Series (2014) [5CD Set] {Warner Music Spain}

CD 4 Bajo El Signo De Cain (1993)


01 - Te comeria el corazon
02 - Lo que hay es lo que ves
03 - Si tu no vuelves
04 - Nada particular
05 - Mayo
06 - Bajo el signo de Cain
07 - Wako-Shaman
08 - Imaginate que te quiero
09 - Sara
10 - Sol forastero
11 - La americana
12 - Gota a gota

Exact Audio Copy V1.0 beta 3 from 29. August 2011

EAC extraction logfile from 24. October 2014, 13:21

Miguel Bose / Bajo El Signo De Cain

Used drive : ASUS SDRW-08D2S-U Adapter: 1 ID: 0

Read mode : Secure
Utilize accurate stream : Yes
Defeat audio cache : Yes
Make use of C2 pointers : No

Read offset correction

: 6
Overread into Lead-In and Lead-Out : No
Fill up missing offset samples with silence : Yes
Delete leading and trailing silent blocks : No
Null samples used in CRC calculations : Yes
Used interface
: Native Win32 interface for Win NT & 2000
Gap handling
: Appended to previous track

Used output format : User Defined Encoder
Selected bitrate : 128 kBit/s
Quality : High
Add ID3 tag : No
Command line compressor : C:\Program Files (x86)\Exact Audio Copy\Flac\flac.exe
Additional command line options : -8 -V -T "ARTIST=%artist%" -T "TITLE=%title%" -T "ALBUM=%albumtitle%" -T "DATE=%year%" -T "TRACKNUMBER=%tracknr%" -T "TOTALTRACKS=%numtracks%" -T "GENRE=%genre%" -T "ALBUMARTIST=%albumartist%" -T "ALBUM ARTIST=%albumartist%" -T "COMMENT=EAC Secure Mode, Test & Copy, AccurateRip, FLAC -8" %source%

TOC of the extracted CD Track | Start | Length | Start sector | End sector
--1 | 0:00.00 | 5:57.47 | 0 | 26821 2 | 5:57.47 | 5:41.73 | 26822 | 52469 3 | 11:39.45 | 4:43.32 | 52470 | 73726 4 | 16:23.02 | 6:03.00 | 73727 | 100951 5 | 22:26.02 | 4:21.63 | 100952 | 120589 6 | 26:47.65 | 5:18.47 | 120590 | 144486 7 | 32:06.37 | 5:59.08 | 144487 | 171419 8 | 38:05.45 | 4:47.72 | 171420 | 193016 9 | 42:53.42 | 5:41.50 | 193017 | 218641
10 | 48:35.17 | 4:12.73 | 218642 | 237614
11 | 52:48.15 | 4:46.37 | 237615 | 259101
12 | 57:34.52 | 4:36.23 | 259102 | 279824

Track 1 Filename D:\Subir\01 - Te comeria el corazon.wav Pre-gap length 0:00:02.00 Peak level 100.0 %
Extraction speed 1.2 X
Track quality 100.0 %
Test CRC D2B3C849
Copy CRC D2B3C849
Cannot be verified as accurate (confidence 7) [FE77FF9E], AccurateRip returned [064D0AE3] (AR v2)
Copy OK

Track 2 Filename D:\Subir\02 - Lo que hay es lo que ves.wav Pre-gap length 0:00:00.02 Peak level 100.0 %
Extraction speed 1.1 X
Track quality 99.9 %
Test CRC CF3DBCF3
Copy CRC CF3DBCF3
Cannot be verified as accurate (confidence 7) 02556AD, AccurateRip returned 69A7105 (AR v2)
Copy OK

Track 3 Filename D:\Subir\03 - Si tu no vuelves.wav Pre-gap length 0:00:00.03 Peak level 78.6 %
Extraction speed 1.3 X
Track quality 100.0 %
Test CRC F9BB41A2
Copy CRC F9BB41A2
Cannot be verified as accurate (confidence 6) [AC7258D1], AccurateRip returned [67E72C03] (AR v2)
Copy OK

Track 4 Filename D:\Subir\04 - Nada particular.wav Pre-gap length 0:00:00.02 Peak level 100.0 %
Extraction speed 1.5 X
Track quality 100.0 %
Test CRC EFD173A4
Copy CRC EFD173A4
Cannot be verified as accurate (confidence 6) [D8FA6293], AccurateRip returned [9620C41C] (AR v2)
Copy OK

Track 5 Filename D:\Subir\05 - Mayo.wav Pre-gap length 0:00:01.67 Peak level 90.6 %
Extraction speed 1.5 X
Track quality 100.0 %
Test CRC B270BD51
Copy CRC B270BD51
Cannot be verified as accurate (confidence 6) [75F151CE], AccurateRip returned [47AEC0C1] (AR v2)
Copy OK

Track 6 Filename D:\Subir\06 - Bajo el signo de Cain.wav Pre-gap length 0:00:00.03 Peak level 82.0 %
Extraction speed 1.6 X
Track quality 100.0 %
Test CRC 1FD9F5E0
Copy CRC 1FD9F5E0
Cannot be verified as accurate (confidence 7) [4422334A], AccurateRip returned [DD5F24D4] (AR v2)
Copy OK

Track 7 Filename D:\Subir\07 - Wako-Shaman.wav Pre-gap length 0:00:01.67 Peak level 94.9 %
Extraction speed 1.7 X
Track quality 100.0 %
Test CRC DE828938
Copy CRC DE828938
Cannot be verified as accurate (confidence 7) [2AC872D2], AccurateRip returned [730C6CA6] (AR v2)
Copy OK

Track 8 Filename D:\Subir\08 - Imaginate que te quiero.wav Pre-gap length 0:00:01.48 Peak level 100.0 %
Extraction speed 1.7 X
Track quality 100.0 %
Test CRC 18AADB22
Copy CRC 18AADB22
Cannot be verified as accurate (confidence 7) [0826B599], AccurateRip returned [9236E18D] (AR v2)
Copy OK

Track 9 Filename D:\Subir\09 - Sara.wav Pre-gap length 0:00:03.30 Peak level 94.0 %
Extraction speed 1.8 X
Track quality 100.0 %
Test CRC BB4C21B2
Copy CRC BB4C21B2
Cannot be verified as accurate (confidence 7) B344BD7, AccurateRip returned [9CE2D788] (AR v2)
Copy OK

Track 10 Filename D:\Subir\10 - Sol forastero.wav Pre-gap length 0:00:00.02 Peak level 100.0 %
Extraction speed 1.5 X
Track quality 99.9 %
Test CRC 5A0EDF12
Copy CRC 5A0EDF12
Cannot be verified as accurate (confidence 7) [23772055], AccurateRip returned [9AB28AC0] (AR v2)
Copy OK

Track 11 Filename D:\Subir\11 - La americana.wav Pre-gap length 0:00:01.63 Peak level 100.0 %
Extraction speed 1.6 X
Track quality 99.9 %
Test CRC 09665B96
Copy CRC 09665B96
Cannot be verified as accurate (confidence 6) B803953, AccurateRip returned [992C3ABD] (AR v2)
Copy OK

Track 12 Filename D:\Subir\12 - Gota a gota.wav Pre-gap length 0:00:01.57 Peak level 100.0 %
Extraction speed 1.9 X
Track quality 100.0 %
Test CRC 75CB57DB
Copy CRC 75CB57DB
Cannot be verified as accurate (confidence 6) [82859209], AccurateRip returned [2CC0069F] (AR v2)
Copy OK

No tracks could be verified as accurate
You may have a different pressing from the one(s) in the database

No errors occurred

End of status report

- CUETools DB Plugin V2.1.3

[CTDB TOCID: XNDZ0kX2MOM5jQFxGcJLoFJTj1I-] found, Submit result: XNDZ0kX2MOM5jQFxGcJLoFJTj1I- has been confirmed
[cb474ca1] (4/4) Accurately ripped

==== Log checksum BE1814342071632368C1EB9D057B8BDA2AAB8110F9EF18B8FF9CF69DC1C671AD ====

Miguel Bose - Original Album Series (2014) [5CD Set] {Warner Music Spain}

Miguel Bose - Original Album Series (2014) [5CD Set] {Warner Music Spain}

CD 5 Laberinto (1996)


01 - Este mundo va
02 - Agua clara
03 - Tesoro (Pudo ser tu nombre...)
04 - No encuentro un momento pa' olvidar
05 - Corazon tocao
06 - Amor entero
07 - Azul de louie
08 - Un dia despues la historia sigue igual
09 - Te buscare
10 - La auto-radio canta
11 - ¡Ay!
12 - Sequia
13 - Nunca Sabre

Exact Audio Copy V1.0 beta 3 from 29. August 2011

EAC extraction logfile from 30. October 2014, 11:10

Miguel Bose / Laberinto

Used drive : ASUS SDRW-08D2S-U Adapter: 1 ID: 0

Read mode : Secure
Utilize accurate stream : Yes
Defeat audio cache : Yes
Make use of C2 pointers : No

Read offset correction

: 6
Overread into Lead-In and Lead-Out : No
Fill up missing offset samples with silence : Yes
Delete leading and trailing silent blocks : No
Null samples used in CRC calculations : Yes
Used interface
: Native Win32 interface for Win NT & 2000
Gap handling
: Appended to previous track

Used output format : User Defined Encoder
Selected bitrate : 128 kBit/s
Quality : High
Add ID3 tag : No
Command line compressor : C:\Program Files (x86)\Exact Audio Copy\Flac\flac.exe
Additional command line options : -8 -V -T "ARTIST=%artist%" -T "TITLE=%title%" -T "ALBUM=%albumtitle%" -T "DATE=%year%" -T "TRACKNUMBER=%tracknr%" -T "TOTALTRACKS=%numtracks%" -T "GENRE=%genre%" -T "ALBUMARTIST=%albumartist%" -T "ALBUM ARTIST=%albumartist%" -T "COMMENT=EAC Secure Mode, Test & Copy, AccurateRip, FLAC -8" %source%

TOC of the extracted CD Track | Start | Length | Start sector | End sector
--1 | 0:00.00 | 4:26.50 | 0 | 19999 2 | 4:26.50 | 4:21.67 | 20000 | 39641 3 | 8:48.42 | 4:48.35 | 39642 | 61276 4 | 13:37.02 | 4:44.03 | 61277 | 82579 5 | 18:21.05 | 7:12.05 | 82580 | 114984 6 | 25:33.10 | 4:12.27 | 114985 | 133911 7 | 29:45.37 | 6:50.58 | 133912 | 164719 8 | 36:36.20 | 8:06.00 | 164720 | 201169 9 | 44:42.20 | 4:44.35 | 201170 | 222504
10 | 49:26.55 | 4:16.50 | 222505 | 241754
11 | 53:43.30 | 6:42.60 | 241755 | 271964
12 | 60:26.15 | 6:30.22 | 271965 | 301236
13 | 66:56.37 | 4:12.15 | 301237 | 320151

Track 1 Filename D:\Subir\01 - Este mundo va.wav Pre-gap length 0:00:02.00 Peak level 100.0 %
Extraction speed 2.8 X
Track quality 100.0 %
Test CRC 4CCA946E
Copy CRC 4CCA946E
Cannot be verified as accurate (confidence 1) [1F28F221], AccurateRip returned [EE67C067] (AR v2)
Copy OK

Track 2 Filename D:\Subir\02 - Agua clara.wav Pre-gap length 0:00:02.08 Peak level 96.8 %
Extraction speed 3.1 X
Track quality 100.0 %
Test CRC 1CAF179E
Copy CRC 1CAF179E
Cannot be verified as accurate (confidence 1) [7687A647], AccurateRip returned 79D3124 (AR v2)
Copy OK

Track 3 Filename D:\Subir\03 - Tesoro (Pudo ser tu nombre...).wav Peak level 95.5 %
Extraction speed 2.9 X
Track quality 99.9 %
Test CRC 6AF13E8B
Copy CRC 6AF13E8B
Cannot be verified as accurate (confidence 1) [F2C805E2], AccurateRip returned [1479B869] (AR v2)
Copy OK

Track 4 Filename D:\Subir\04 - No encuentro un momento pa'olvidar.wav Pre-gap length 0:00:02.45 Peak level 88.9 %
Extraction speed 3.7 X
Track quality 100.0 %
Test CRC CC2ACE49
Copy CRC CC2ACE49
Cannot be verified as accurate (confidence 1) [F8E1C2FE], AccurateRip returned [1D3BE73D] (AR v2)
Copy OK

Track 5 Filename D:\Subir\05 - Corazon tocao.wav Pre-gap length 0:00:01.73 Peak level 97.7 %
Extraction speed 4.1 X
Track quality 100.0 %
Test CRC A3FF28B4
Copy CRC A3FF28B4
Cannot be verified as accurate (confidence 1) [2595CBB0], AccurateRip returned [368F666D] (AR v2)
Copy OK

Track 6 Filename D:\Subir\06 - Amor entero.wav Pre-gap length 0:00:02.47 Peak level 97.7 %
Extraction speed 4.2 X
Track quality 100.0 %
Test CRC 338472FE
Copy CRC 338472FE
Cannot be verified as accurate (confidence 1) [963808DF], AccurateRip returned [EFCE78C2] (AR v2)
Copy OK

Track 7 Filename D:\Subir\07 - Azul de louie.wav Pre-gap length 0:00:02.55 Peak level 99.9 %
Extraction speed 4.6 X
Track quality 100.0 %
Test CRC 12AEFD99
Copy CRC 12AEFD99
Cannot be verified as accurate (confidence 1) [5CF09A59], AccurateRip returned [A0046F9B] (AR v2)
Copy OK

Track 8 Filename D:\Subir\08 - Un dia despues la historia sigue igual.wav Pre-gap length 0:00:00.35 Peak level 97.4 %
Extraction speed 4.4 X
Track quality 99.9 %
Test CRC C814F560
Copy CRC C814F560
Cannot be verified as accurate (confidence 1) [0FA08D24], AccurateRip returned [07CA82BD] (AR v2)
Copy OK

Track 9 Filename D:\Subir\09 - Te buscare.wav Peak level 97.7 %
Extraction speed 4.9 X
Track quality 100.0 %
Test CRC A0DE13EB
Copy CRC A0DE13EB
Cannot be verified as accurate (confidence 1) [E494BE19], AccurateRip returned 4A388DF (AR v2)
Copy OK

Track 10 Filename D:\Subir\10 - La auto-radio canta.wav Pre-gap length 0:00:01.15 Peak level 97.7 %
Extraction speed 5.0 X
Track quality 100.0 %
Test CRC D1AE89BB
Copy CRC D1AE89BB
Cannot be verified as accurate (confidence 1) [53138F11], AccurateRip returned [C8DA4035] (AR v2)
Copy OK

Track 11 Filename D:\Subir\11 - Ay.wav Pre-gap length 0:00:00.30 Peak level 97.7 %
Extraction speed 5.4 X
Track quality 100.0 %
Test CRC CDB1260A
Copy CRC CDB1260A
Cannot be verified as accurate (confidence 1) [0F30C20B], AccurateRip returned [9A2E3185] (AR v2)
Copy OK

Track 12 Filename D:\Subir\12 - Sequia.wav Peak level 93.2 %
Extraction speed 5.6 X
Track quality 100.0 %
Test CRC 745C0184
Copy CRC 745C0184
Cannot be verified as accurate (confidence 1) [507DDF1B], AccurateRip returned [919DDA59] (AR v2)
Copy OK

Track 13 Filename D:\Subir\13 - Nunca sabre.wav Pre-gap length 0:00:02.52 Peak level 97.7 %
Extraction speed 5.4 X
Track quality 100.0 %
Test CRC 856EC458
Copy CRC 856EC458
Cannot be verified as accurate (confidence 1) [FCD89E14], AccurateRip returned [EC45C0E5] (AR v2)
Copy OK

No tracks could be verified as accurate
You may have a different pressing from the one(s) in the database

No errors occurred

End of status report

- CUETools DB Plugin V2.1.3

[CTDB TOCID: hJWLOzAN90R78XxdYf1lTLJyd.E-] found, Submit result: already submitted
[3d4a55e4] (3/3) Accurately ripped

==== Log checksum D19073E883405FDF87E3F1805C5F453BF5AB58D35C3F1C0CC1C2B5747CA3CAE8 ====

Miguel Bose - Original Album Series (2014) [5CD Set] {Warner Music Spain}

Miguel Bose - Original Album Series (2014) [5CD Set] {Warner Music Spain}


All thanks goes to the original releaser!
DOWNLOAD LINKS
Buy Premium From My Links To Get Resumable Support & Max Speed & To Support Me

Rapidgator.net:
http://rapidgator.net/file/299bde8fe5dec80ba23a2e032f4fd759/fn4kx.boseoasARTWORK.rar.html
http://rapidgator.net/file/72b2fb40df16f8f4603f71c50f5c6663/fn4kx.boseoasCD1salamandra.part1.rar.html
http://rapidgator.net/file/43c204c74c4a82d56164886c34af7e72/fn4kx.boseoasCD1salamandra.part2.rar.html
http://rapidgator.net/file/db2959a79b718991246a30a3bf7cf4ea/fn4kx.boseoasCD1salamandraMP.rar.html
http://rapidgator.net/file/c20dc5dd2cfda52f806c203395800488/fn4kx.boseoasCD2xxx.part1.rar.html
http://rapidgator.net/file/4a03a53a159a143df25224473b9b9211/fn4kx.boseoasCD2xxx.part2.rar.html
http://rapidgator.net/file/74c97099cb48a7dcf99d25f837c49cf9/fn4kx.boseoasCD2xxxMP.rar.html
http://rapidgator.net/file/73d66b0bdee1325fd9e7c26ef9d1e6b0/fn4kx.boseoasCD3loschicos.part1.rar.html
http://rapidgator.net/file/e94eb7899a70474e0b820949896f1315/fn4kx.boseoasCD3loschicos.part2.rar.html
http://rapidgator.net/file/7ab7164c59a59199b56fcdf441ec1cff/fn4kx.boseoasCD3loschicosMP.rar.html
http://rapidgator.net/file/052aa02bdcc36431e9144cc2457f21db/fn4kx.boseoasCD4bajo.part1.rar.html
http://rapidgator.net/file/88f19e12968d8b36107e3e96b4b1810f/fn4kx.boseoasCD4bajo.part2.rar.html
http://rapidgator.net/file/8687049a328dcaa4b4c9dcfd563035cb/fn4kx.boseoasCD4bajoMP.rar.html
http://rapidgator.net/file/687907a4b53c04f0282b5a0d2064d58c/fn4kx.boseoasCD5laberinto.part1.rar.html
http://rapidgator.net/file/dc4b53cb2d7104e06a75d9efd8693cb9/fn4kx.boseoasCD5laberinto.part2.rar.html
http://rapidgator.net/file/7df41e183ee9f828284117e06df55816/fn4kx.boseoasCD5laberinto.part3.rar.html
http://rapidgator.net/file/8881fd8bfe55f747603c30da1a233cfc/fn4kx.boseoasCD5laberintoMP.rar.html

Uploaded.net:
http://uploaded.net/file/wpqyqcx7/fn4kx.boseoasARTWORK.rar
http://uploaded.net/file/fhcau1cz/fn4kx.boseoasCD1salamandra.part1.rar
http://uploaded.net/file/1tu0mi1a/fn4kx.boseoasCD1salamandra.part2.rar
http://uploaded.net/file/2kv36jtd/fn4kx.boseoasCD1salamandraMP.rar
http://uploaded.net/file/pqfe8kj7/fn4kx.boseoasCD2xxx.part1.rar
http://uploaded.net/file/sfb7bew4/fn4kx.boseoasCD2xxx.part2.rar
http://uploaded.net/file/ol9r02ne/fn4kx.boseoasCD2xxxMP.rar
http://uploaded.net/file/ljdw02v1/fn4kx.boseoasCD3loschicos.part1.rar
http://uploaded.net/file/72wz06a5/fn4kx.boseoasCD3loschicos.part2.rar
http://uploaded.net/file/ehvavni4/fn4kx.boseoasCD3loschicosMP.rar
http://uploaded.net/file/4f56dqrr/fn4kx.boseoasCD4bajo.part1.rar
http://uploaded.net/file/6h2mjaow/fn4kx.boseoasCD4bajo.part2.rar
http://uploaded.net/file/z9kmj984/fn4kx.boseoasCD4bajoMP.rar
http://uploaded.net/file/m2d0mtqs/fn4kx.boseoasCD5laberinto.part1.rar
http://uploaded.net/file/aunbx22l/fn4kx.boseoasCD5laberinto.part2.rar
http://uploaded.net/file/9rvlbqmw/fn4kx.boseoasCD5laberinto.part3.rar
http://uploaded.net/file/63a4j7eb/fn4kx.boseoasCD5laberintoMP.rar

nitroflare_com:
http://nitroflare.com/view/F22C0EB03197851/fn4kx.boseoasARTWORK.rar
http://nitroflare.com/view/67523AD84C150AB/fn4kx.boseoasCD1salamandra.part1.rar
http://nitroflare.com/view/045FFD77AAC08B8/fn4kx.boseoasCD1salamandra.part2.rar
http://nitroflare.com/view/632C571CDF19F0D/fn4kx.boseoasCD1salamandraMP.rar
http://nitroflare.com/view/DD5BC516EFEC8FC/fn4kx.boseoasCD2xxx.part1.rar
http://nitroflare.com/view/CF298A2912AE5B4/fn4kx.boseoasCD2xxx.part2.rar
http://nitroflare.com/view/268B073E889F082/fn4kx.boseoasCD2xxxMP.rar
http://nitroflare.com/view/211FE38AAD07A11/fn4kx.boseoasCD3loschicos.part1.rar
http://nitroflare.com/view/8B9BF29F23CBF43/fn4kx.boseoasCD3loschicos.part2.rar
http://nitroflare.com/view/4FEC4892EBBA149/fn4kx.boseoasCD3loschicosMP.rar
http://nitroflare.com/view/6770D0F0A48F840/fn4kx.boseoasCD4bajo.part1.rar
http://nitroflare.com/view/7A26FA446F01AA2/fn4kx.boseoasCD4bajo.part2.rar
http://nitroflare.com/view/0C5318019896D5B/fn4kx.boseoasCD4bajoMP.rar
http://nitroflare.com/view/C058C15F1F9BBB4/fn4kx.boseoasCD5laberinto.part1.rar
http://nitroflare.com/view/F63437450A71EDB/fn4kx.boseoasCD5laberinto.part2.rar
http://nitroflare.com/view/71CF479F6772DD1/fn4kx.boseoasCD5laberinto.part3.rar
http://nitroflare.com/view/3FDA55569C14B2F/fn4kx.boseoasCD5laberintoMP.rar

Uploadable.ch:
http://www.uploadable.ch/file/CwzE4NUEg6eQ/fn4kx.boseoasARTWORK.rar
http://www.uploadable.ch/file/zuN6mcGC6eaj/fn4kx.boseoasCD1salamandra.part1.rar
http://www.uploadable.ch/file/FCUgpfs3hvgb/fn4kx.boseoasCD1salamandra.part2.rar
http://www.uploadable.ch/file/WZahCUWkssUu/fn4kx.boseoasCD1salamandraMP.rar
http://www.uploadable.ch/file/nvMxnjBKYXr5/fn4kx.boseoasCD2xxx.part1.rar
http://www.uploadable.ch/file/CMKPvFZHgcMS/fn4kx.boseoasCD2xxx.part2.rar
http://www.uploadable.ch/file/C4njmN8MyuZ2/fn4kx.boseoasCD2xxxMP.rar
http://www.uploadable.ch/file/QGYuMfcfCKwe/fn4kx.boseoasCD3loschicos.part1.rar
http://www.uploadable.ch/file/hHfK8kGBfP4W/fn4kx.boseoasCD3loschicos.part2.rar
http://www.uploadable.ch/file/frSkd5C7fJgk/fn4kx.boseoasCD3loschicosMP.rar
http://www.uploadable.ch/file/zUnuPbVmpksc/fn4kx.boseoasCD4bajo.part1.rar
http://www.uploadable.ch/file/uFERJSenJX4z/fn4kx.boseoasCD4bajo.part2.rar
http://www.uploadable.ch/file/8Nwns7MbQXFe/fn4kx.boseoasCD4bajoMP.rar
http://www.uploadable.ch/file/mTzSFGdhPCaQ/fn4kx.boseoasCD5laberinto.part1.rar
http://www.uploadable.ch/file/4DgUwBjD4rCQ/fn4kx.boseoasCD5laberinto.part2.rar
http://www.uploadable.ch/file/nz2whNbcY7uz/fn4kx.boseoasCD5laberinto.part3.rar
http://www.uploadable.ch/file/GtPYtTHUFPRf/fn4kx.boseoasCD5laberintoMP.rar

Links are Interchangeable - No Password - Single Extraction
Direct Download

Tags: Miguel, Original, Series, Warner

Miguel Bose - Original Album Series (2014) [5CD Set] {Warner Music Spain} Download via Hotfile Rapidshare Fileserve Megaupload & FileSonic, Miguel Bose - Original Album Series (2014) [5CD Set] {Warner Music Spain} free torrent downloads included crack, serial, keygen.Miguel Bose - Original Album Series (2014) [5CD Set] {Warner Music Spain} Fast Download via Rapidshare Hotfile Fileserve Filesonic Megaupload, Miguel Bose - Original Album Series (2014) [5CD Set] {Warner Music Spain} Torrents and Emule Download or anything related.
Leave a Comment
Your Name:
E-Mail:
Add Comments:

Enter Code: