Shonen Knife - It's A New Find (1997) [Japan only CD-EP]

Download Now


Shonen Knife - It's A New Find (1997) [Japan only CD-EP]
Shonen Knife - It's A New Find (1997) [CD-EP]
FLAC+CUE+LOG or MP3 CBR 320 | Complete Scanwork | 256 or 77 MB
Japan only MCD | 少年ナイフ ~新しい発見~ | MCA Victor, Inc. # MVCH-14001

It's A New Find is the Japan only CD-EP, includes *all new* Shonen Knife songs, remixes & "Anyway You Want It" is a cover of the song by the '70's band Angel.
Tracklist:

01. It's A New Find (English)
02. Hot Chocolate
03. Anyway You Want It
04. Mysterious Drugstore
05. It's A New Find ~新しい発見~
06. Hot Chocolate (Stereolab Mix)
07. It's A New Find (English/I've Gone Bezerk Mix)

Exact Audio Copy V1.0 beta 1 from 15. November 2010

EAC extraction logfile from 19. June 2011, 19:37

Shonen Knife / It's A New Find

Used drive : PLEXTOR DVDR PX-716A Adapter: 1 ID: 0

Read mode : Secure
Utilize accurate stream : Yes
Defeat audio cache : Yes
Make use of C2 pointers : No

Read offset correction

: 30
Overread into Lead-In and Lead-Out : No
Fill up missing offset samples with silence : Yes
Delete leading and trailing silent blocks : No
Null samples used in CRC calculations : Yes
Used interface
: Installed external ASPI interface

Used output format : Internal WAV Routines
Sample format : 44.100 Hz; 16 Bit; Stereo

TOC of the extracted CD Track | Start | Length | Start sector | End sector
--1 | 0:00.37 | 3:41.73 | 37 | 16684 2 | 3:42.35 | 3:10.62 | 16685 | 30996 3 | 6:53.22 | 2:22.60 | 30997 | 41706 4 | 9:16.07 | 4:01.48 | 41707 | 59829 5 | 13:17.55 | 3:37.00 | 59830 | 76104 6 | 16:54.55 | 7:20.25 | 76105 | 109129 7 | 24:15.05 | 3:58.02 | 109130 | 126981

Range status and errors

Selected range Filename C:\AvaxHome.ru\1997- It's A New Find (CD-EP)\Shonen Knife - It's A New Find (MVCH-14001).wav Peak level 98.8 %
Extraction speed 0.9 X
Range quality 100.0 %
Test CRC 91C06CB3
Copy CRC 91C06CB3
Copy OK

No errors occurred


AccurateRip summary

Track 1 not present in database
Track 2 not present in database
Track 3 not present in database
Track 4 not present in database
Track 5 not present in database
Track 6 not present in database
Track 7 not present in database

None of the tracks are present in the AccurateRip database

End of status report

==== Log checksum 1E1B7C64EC5A0A80288DE54310E06741FE0BA5F8FDC80FC874B850888EE0B3E7 ====

Produced by Shonen Knife
Recorded at Omega Sound, Osaka, Japan by Tetsuya Kotani.

* Naoko Yamano - vocals, guitars
* Michie Nakatani - vocals, bass
* Atsuko Yamano - vocals, drums

Release Date: April 23, 1997
Label: MCA Victor, Inc., Japan
Catalog No.: MVCH-14001
DOWNLOAD:
Buy Premium To Support Me & Get Resumable Support & Max Speed


Links are Interchangeable - No Password
Direct Download

Tags: Shonen

Shonen Knife - It's A New Find (1997) [Japan only CD-EP] Download via Hotfile Rapidshare Fileserve Megaupload & FileSonic, Shonen Knife - It's A New Find (1997) [Japan only CD-EP] free torrent downloads included crack, serial, keygen.Shonen Knife - It's A New Find (1997) [Japan only CD-EP] Fast Download via Rapidshare Hotfile Fileserve Filesonic Megaupload, Shonen Knife - It's A New Find (1997) [Japan only CD-EP] Torrents and Emule Download or anything related.
Leave a Comment
Your Name:
E-Mail:
Add Comments:

Enter Code: