Art Blakey - Live At Montreux and Northsea (1980) {2015 Japan Timeless Jazz Master Collection Complete Series}

Download Now


Art Blakey - Live At Montreux and Northsea (1980) {2015 Japan Timeless Jazz Master Collection Complete Series}
Art Blakey and The Jazz Messengers Big Band - Live At Montreux and Northsea (1980) {2015 Japan Timeless Jazz Master Collection Complete Series}
EAC rip (secure mode) | FLAC (tracks)+CUE+LOG -> 286 Mb | MP3 @320 -> 103 Mb
Full Artwork @ 600 dpi (png) -> 191 Mb | 5% repair rar
© 2015 Timeless Records / Solid Records Japan / Ultra-Vibe | CDSOL-6305
Jazz / Hard Bop / Little Big Band

"Reissue with the latest remastering. Features original cover artwork. Comes with a descripton in Japanese. A beautiful big band set from the great Art Blakey - but one that's got all the sharp focus of his small group sides by the Jazz Messengers! The lineup here is a great one - that very vibrant early 80s version of Blakey's group with Bobby Watson on alto sax, Bill Pierce on tenor, and James Williams on piano - augmented by Kevin Eubanks on guitar, Valerie Ponomarev on trumpet, and the Marsalis brothers rounding out the set with some extra horn work! The sound is strong and proud, and handled by Blakey with a tightness that's similar to his smaller group work of the time - but with a power that's simply incredible - especially when Watson's presence is made known on his tunes "Wheel Within A Wheel", "Linwood", and "Bit A Bittadose". Also features a take on Williams' "Minor Thesis"."

Art Blakey - Live At Montreux and Northsea (1980) {2015 Japan Timeless Jazz Master Collection Complete Series}


Ultra-Vibe INFO

Personnel:
Art Blakey - drums
Bill Pierce - tenor sax
Bobby Watson - alto sax
Valerie Ponomarev - trumpet
James Williams - piano
Charles Fambrough - bass
Wynton Marsalis - trumpet
Branford Marsalis - alto sax, baritone sax
Robin Eubanks - trombone
Kevin Eubanks - guitar
John Ramsey - drums

tracklist
01 - Minor Thesis
02 - A Wheel Within A Wheel
03 - Bit A Bittadose
04 - Stairway To The Stars
05 - Linwood

Exact Audio Copy V1.1 from 23. June 2015

EAC extraction logfile from 1. September 2015, 17:55

Art Blakey And The Jazz Messengers Big Band / Live At Montreux And Northsea

Used drive : TSSTcorpCDDVDW SE-208DB Adapter: 7 ID: 0

Read mode : Secure
Utilize accurate stream : Yes
Defeat audio cache : Yes
Make use of C2 pointers : No

Read offset correction

: 6
Overread into Lead-In and Lead-Out : No
Fill up missing offset samples with silence : Yes
Delete leading and trailing silent blocks : No
Null samples used in CRC calculations : Yes
Used interface
: Installed external ASPI interface
Gap handling
: Appended to previous track

Used output format : User Defined Encoder
Selected bitrate : 1024 kBit/s
Quality : High
Add ID3 tag : No
Command line compressor : C:\Program Files (x86)\FLAC Frontend\tools\flac.exe
Additional command line options : -8 -V -T "ARTIST=%artist%" -T "TITLE=%title%" -T "ALBUM=%albumtitle%" -T "DATE=%year%" -T "TRACKNUMBER=%tracknr%" -T "TOTALTRACKS=%numtracks%" -T "GENRE=%genre%" -T "ALBUMARTIST=%albumartist%" -T "ALBUM ARTIST=%albumartist%" -T "COMMENT=EAC Secure Mode, Test & Copy, AccurateRip, FLAC -8" %source%

TOC of the extracted CD Track | Start | Length | Start sector | End sector
--1 | 0:00.00 | 13:18.04 | 0 | 59853 2 | 13:18.04 | 7:02.28 | 59854 | 91531 3 | 20:20.32 | 6:41.13 | 91532 | 121619 4 | 27:01.45 | 8:34.64 | 121620 | 160233 5 | 35:36.34 | 7:33.05 | 160234 | 194213

Track 1 Filename M:\_EAC\Art Blakey - Live At Montreux And Northsea (1980) [FLAC] {2015 Japan Timeless Jazz Master Collection}\01 - Minor Thesis.wav Pre-gap length 0:00:02.00 Peak level 96.6 %
Extraction speed 3.2 X
Track quality 100.0 %
Test CRC 523863E8
Copy CRC 523863E8
Accurately ripped (confidence 2) [96DEC798] (AR v2)
Copy OK

Track 2 Filename M:\_EAC\Art Blakey - Live At Montreux And Northsea (1980) [FLAC] {2015 Japan Timeless Jazz Master Collection}\02 - A Wheel Within A Wheel.wav Peak level 96.6 %
Extraction speed 3.8 X
Track quality 100.0 %
Test CRC 1BEF391B
Copy CRC 1BEF391B
Accurately ripped (confidence 2) [5A0EDCCC] (AR v2)
Copy OK

Track 3 Filename M:\_EAC\Art Blakey - Live At Montreux And Northsea (1980) [FLAC] {2015 Japan Timeless Jazz Master Collection}\03 - Bit A Bittadose.wav Peak level 96.6 %
Extraction speed 4.1 X
Track quality 100.0 %
Test CRC 3FBA6C95
Copy CRC 3FBA6C95
Accurately ripped (confidence 2) [8A348303] (AR v2)
Copy OK

Track 4 Filename M:\_EAC\Art Blakey - Live At Montreux And Northsea (1980) [FLAC] {2015 Japan Timeless Jazz Master Collection}\04 - Stairway To The Stars.wav Peak level 96.6 %
Extraction speed 4.6 X
Track quality 100.0 %
Test CRC 8E2FFDB8
Copy CRC 8E2FFDB8
Accurately ripped (confidence 2) CC7ECEB (AR v2)
Copy OK

Track 5 Filename M:\_EAC\Art Blakey - Live At Montreux And Northsea (1980) [FLAC] {2015 Japan Timeless Jazz Master Collection}\05 - Linwood.wav Peak level 96.6 %
Extraction speed 4.9 X
Track quality 100.0 %
Test CRC 7E3202C3
Copy CRC 7E3202C3
Accurately ripped (confidence 2) [1029E573] (AR v2)
Copy OK

All tracks accurately ripped

No errors occurred

End of status report

==== Log checksum 75024AE5D80FE83F34AC4F6F82B9A176474D1462D563124BFF83AFA567305397 ====

Art Blakey - Live At Montreux and Northsea (1980) {2015 Japan Timeless Jazz Master Collection Complete Series}

Art Blakey - Live At Montreux and Northsea (1980) {2015 Japan Timeless Jazz Master Collection Complete Series}






NEXT -> More 2015 Japan Timeless Jazz Master Collection...
DOWNLOAD LINKS
Buy Premium From My Links To Get Resumable Support & Max Speed & To Support Me


Links are Interchangeable - No Password - Single Extraction
Direct Download

Tags: Blakey, Montreux, Northsea, Timeless, Master, Collection, Complete, Series

Art Blakey - Live At Montreux and Northsea (1980) {2015 Japan Timeless Jazz Master Collection Complete Series} Download via Hotfile Rapidshare Fileserve Megaupload & FileSonic, Art Blakey - Live At Montreux and Northsea (1980) {2015 Japan Timeless Jazz Master Collection Complete Series} free torrent downloads included crack, serial, keygen.Art Blakey - Live At Montreux and Northsea (1980) {2015 Japan Timeless Jazz Master Collection Complete Series} Fast Download via Rapidshare Hotfile Fileserve Filesonic Megaupload, Art Blakey - Live At Montreux and Northsea (1980) {2015 Japan Timeless Jazz Master Collection Complete Series} Torrents and Emule Download or anything related.
Leave a Comment
Your Name:
E-Mail:
Add Comments:

Enter Code: