Art Blakey & The Jazz Messengers - Live In Zurich 1958 (2010) [2CD] {Solar Records}

Download Now


Art Blakey & The Jazz Messengers - Live In Zurich 1958 (2010) [2CD] {Solar Records}
Art Blakey & The Jazz Messengers - Live In Zurich 1958 (2010) [2CD] {Solar Records}
XLD rip (secure mode) | FLAC (tracks)+CUE+LOG -> 561 Mb | MP3 @320 -> 243 Mb
Full Artwork @ 300 dpi (png) -> 32 Mb | 5% repair rar
© 2010 Solar Records | 4569881
Jazz / Hard Bop

"A complete, previously unissued 1958 concert, with excellent sound quality, performed in Zurich by one of the best formations of Art Blakey's Jazz Messengers, featuring Lee Morgan, Benny Golson, Bobby Timmons and Jymie Merritt. Contains new versions of the classics "Moanin'" and "I Remember Clifford", along with the only existing live version of "Come Rain or Come Shine" by this group, and an amazing trio version of "My Funny Valentine" with Bobby Timmons as the featured soloist."

Art Blakey & The Jazz Messengers - Live In Zurich 1958 (2010) [2CD] {Solar Records}


Personnel:
Lee Morgan, trumpet
Benny Golson, tenor sax
Bobby Timmons, piano
Jymie Merritt, bass
Art Blakey, drums

Volkshaus, Zurich, Switzerland, December 4, 1958.

Art Blakey & The Jazz Messengers - Live In Zurich 1958 (2010) [2CD] {Solar Records}


TRACKLIST
CD1:

01. NOW'S THE TIME 13:17
02. THE THEME 6:48
03. MOANIN' 14:30
04. WHISPER NOT 11:05
05. EVIDENCE 6:24

TOTAL TIME: 52:06

CD2:
01. I REMEMBER CLIFFORD 7:56
02. JUST BY MYSELF 6:37
03. ALONG CAME BETTY 11:52
04. MY FUNNY VALENTINE 6:30
05. COME RAIN OR COME SHINE 8:46
06. A NIGHT IN TUNISIA 9:09

TOTAL TIME: 49:53

X Lossless Decoder version 20121222 (142.2)

XLD extraction logfile from 2013-01-12 11:15:18 -0600

Art Blakey & The Jazz Messengers / Live in Zurich, 1958 CD1

Used drive : HL-DT-ST DVDRW GS31N (revision TA17)
Media type : Pressed CD

Ripper mode : XLD Secure Ripper
Disable audio cache : OK for the drive with a cache less than 1375KiB
Make use of C2 pointers : NO
Read offset correction : 667
Max retry count : 100
Gap status : Analyzed, Appended (except HTOA)

TOC of the extracted CD
Track | Start | Length | Start sector | End sector
--1 | 00:00:00 | 13:17:38 | 0 | 59812 2 | 13:17:38 | 06:48:37 | 59813 | 90449 3 | 20:06:00 | 14:30:19 | 90450 | 155718 4 | 34:36:19 | 11:05:71 | 155719 | 205664 5 | 45:42:15 | 06:24:60 | 205665 | 234524

AccurateRip Summary
Disc not found in AccurateRip DB.

All Tracks
Album gain : -5.99 dB
Peak : 1.000000
StatisticsRead error : 0Jitter error (maybe fixed) : 0Retry sector count : 0Damaged sector count : 0

Track 01
Filename : /Volumes/Data/RIPS/01 - Now's the Time.flac
Pre-gap length : 00:02:00 Track gain : -6.71 dB
Peak : 0.934601
CRC32 hash (test run) : A92897A4
CRC32 hash : A92897A4
CRC32 hash (skip zero) : 8F4959B7
AccurateRip v1 signature : A1726CD8
AccurateRip v2 signature : A19600A7->Track not present in AccurateRip database.
StatisticsRead error : 0Jitter error (maybe fixed) : 0Retry sector count : 0Damaged sector count : 0

Track 02
Filename : /Volumes/Data/RIPS/02 - The Theme.flac Track gain : -5.89 dB
Peak : 0.999878
CRC32 hash (test run) : 0238759D
CRC32 hash : 0238759D
CRC32 hash (skip zero) : 18A25A59
AccurateRip v1 signature : D38191F4
AccurateRip v2 signature : 20CF9D06->Track not present in AccurateRip database.
StatisticsRead error : 0Jitter error (maybe fixed) : 0Retry sector count : 0Damaged sector count : 0

Track 03
Filename : /Volumes/Data/RIPS/03 - Moanin'.flac Track gain : -5.56 dB
Peak : 1.000000
CRC32 hash (test run) : 36DB755B
CRC32 hash : 36DB755B
CRC32 hash (skip zero) : 562A2A75
AccurateRip v1 signature : 633CE7FE
AccurateRip v2 signature : AC871299->Track not present in AccurateRip database.
StatisticsRead error : 0Jitter error (maybe fixed) : 0Retry sector count : 0Damaged sector count : 0

Track 04
Filename : /Volumes/Data/RIPS/04 - Whisper Not.flac Track gain : -5.20 dB
Peak : 0.930023
CRC32 hash (test run) : 9B369F97
CRC32 hash : 9B369F97
CRC32 hash (skip zero) : 70C75AE6
AccurateRip v1 signature : 395D38C0
AccurateRip v2 signature : 94254E53->Track not present in AccurateRip database.
StatisticsRead error : 0Jitter error (maybe fixed) : 0Retry sector count : 0Damaged sector count : 0

Track 05
Filename : /Volumes/Data/RIPS/05 - Evidence.flac Track gain : -5.60 dB
Peak : 0.860870
CRC32 hash (test run) : 984EA7C5
CRC32 hash : 984EA7C5
CRC32 hash (skip zero) : C436A5B8
AccurateRip v1 signature : A15DB761
AccurateRip v2 signature : 350333F4->Track not present in AccurateRip database.
StatisticsRead error : 0Jitter error (maybe fixed) : 0Retry sector count : 0Damaged sector count : 0

No errors occurred

End of status report

X Lossless Decoder version 20121222 (142.2)

XLD extraction logfile from 2013-01-12 10:46:01 -0600

Art Blakey & The Jazz Messengers / Live In Zurich, 1958 CD2

Used drive : HL-DT-ST DVDRW GS31N (revision TA17)
Media type : Pressed CD

Ripper mode : XLD Secure Ripper
Disable audio cache : OK for the drive with a cache less than 1375KiB
Make use of C2 pointers : NO
Read offset correction : 667
Max retry count : 100
Gap status : Analyzed, Appended (except HTOA)

TOC of the extracted CD
Track | Start | Length | Start sector | End sector
--1 | 00:00:00 | 07:56:72 | 0 | 35771 2 | 07:56:72 | 06:37:64 | 35772 | 65610 3 | 14:34:61 | 10:52:30 | 65611 | 114540 4 | 25:27:16 | 06:30:50 | 114541 | 143840 5 | 31:57:66 | 08:46:47 | 143841 | 183337 6 | 40:44:38 | 09:09:22 | 183338 | 224534

AccurateRip Summary
Disc not found in AccurateRip DB.

All Tracks
Album gain : -3.78 dB
Peak : 0.964813
StatisticsRead error : 0Jitter error (maybe fixed) : 0Retry sector count : 0Damaged sector count : 0

Track 01
Filename : /Volumes/Data/RIPS/01 - I Remember Clifford.flac
Pre-gap length : 00:02:00 Track gain : -3.48 dB
Peak : 0.899536
CRC32 hash (test run) : 4AAAE4C8
CRC32 hash : 4AAAE4C8
CRC32 hash (skip zero) : E990C3E0
AccurateRip v1 signature : 81FF2956
AccurateRip v2 signature : ED78A02F->Track not present in AccurateRip database.
StatisticsRead error : 0Jitter error (maybe fixed) : 0Retry sector count : 0Damaged sector count : 0

Track 02
Filename : /Volumes/Data/RIPS/02 - Just By Myself.flac Track gain : -4.17 dB
Peak : 0.832916
CRC32 hash (test run) : F4977955
CRC32 hash : F4977955
CRC32 hash (skip zero) : 9AD004BA
AccurateRip v1 signature : 0217A54D
AccurateRip v2 signature : 40F33D13->Track not present in AccurateRip database.
StatisticsRead error : 0Jitter error (maybe fixed) : 0Retry sector count : 0Damaged sector count : 0

Track 03
Filename : /Volumes/Data/RIPS/03 - Along Came Betty.flac Track gain : -1.91 dB
Peak : 0.879517
CRC32 hash (test run) : 6D491388
CRC32 hash : 6D491388
CRC32 hash (skip zero) : 47D0C126
AccurateRip v1 signature : 523F3D30
AccurateRip v2 signature : 170F4D42->Track not present in AccurateRip database.
StatisticsRead error : 0Jitter error (maybe fixed) : 0Retry sector count : 0Damaged sector count : 0

Track 04
Filename : /Volumes/Data/RIPS/04 - My Funny Valentine.flac Track gain : -2.69 dB
Peak : 0.904999
CRC32 hash (test run) : 5D4242DC
CRC32 hash : 5D4242DC
CRC32 hash (skip zero) : 5D5BEB11
AccurateRip v1 signature : 92AC3761
AccurateRip v2 signature : 68FED861->Track not present in AccurateRip database.
StatisticsRead error : 0Jitter error (maybe fixed) : 0Retry sector count : 0Damaged sector count : 0

Track 05
Filename : /Volumes/Data/RIPS/05 - Come Rain Or Come Shine.flac Track gain : -2.85 dB
Peak : 0.963013
CRC32 hash (test run) : 690E6027
CRC32 hash : 690E6027
CRC32 hash (skip zero) : 30B2C8C0
AccurateRip v1 signature : D0644E58
AccurateRip v2 signature : EA875E18->Track not present in AccurateRip database.
StatisticsRead error : 0Jitter error (maybe fixed) : 0Retry sector count : 0Damaged sector count : 0

Track 06
Filename : /Volumes/Data/RIPS/06 - A Night in Tunisia.flac Track gain : -5.56 dB
Peak : 0.964813
CRC32 hash (test run) : 52C7C5E3
CRC32 hash : 52C7C5E3
CRC32 hash (skip zero) : 9BE41919
AccurateRip v1 signature : 2F1D26CE
AccurateRip v2 signature : 6A4CB1A4->Track not present in AccurateRip database.
StatisticsRead error : 0Jitter error (maybe fixed) : 0Retry sector count : 0Damaged sector count : 0

No errors occurred

End of status report

Art Blakey & The Jazz Messengers - Live In Zurich 1958 (2010) [2CD] {Solar Records}


All thanks goes to the original releaser!
DOWNLOAD LINKS
Buy Premium From My Links To Get Resumable Support & Max Speed & To Support Me

Rapidgator.net:
http://rapidgator.net/file/9d59781db4b1374af82001a8f23a8fc3/lper6.blakeyliveinzurich1958ARTWORK.rar.html
http://rapidgator.net/file/9a3e9fc70d6d7c8d0bd8c622f1e4b6f9/lper6.blakeyliveinzurich1958CD1.part1.rar.html
http://rapidgator.net/file/231700a20901f8fa3fcd0bf81bc7a40d/lper6.blakeyliveinzurich1958CD1.part2.rar.html
http://rapidgator.net/file/e4cdceab3e8bc3fefc74c438b9de7922/lper6.blakeyliveinzurich1958CD1MP.rar.html
http://rapidgator.net/file/50a339d2613559d334681ed1fe492cea/lper6.blakeyliveinzurich1958CD2.part1.rar.html
http://rapidgator.net/file/9262a35b0d0a4018041f006ca97bee00/lper6.blakeyliveinzurich1958CD2.part2.rar.html
http://rapidgator.net/file/b8344052f01e6430f21f3daa5125d813/lper6.blakeyliveinzurich1958CD2MP.rar.html

Uploaded.net:
http://uploaded.net/file/tmi87s37/lper6.blakeyliveinzurich1958ARTWORK.rar
http://uploaded.net/file/xvy30iwl/lper6.blakeyliveinzurich1958CD1.part1.rar
http://uploaded.net/file/i0a3zdjl/lper6.blakeyliveinzurich1958CD1.part2.rar
http://uploaded.net/file/u2as9cx9/lper6.blakeyliveinzurich1958CD1MP.rar
http://uploaded.net/file/qxb7nggh/lper6.blakeyliveinzurich1958CD2.part1.rar
http://uploaded.net/file/1gos86p6/lper6.blakeyliveinzurich1958CD2.part2.rar
http://uploaded.net/file/iaja97dc/lper6.blakeyliveinzurich1958CD2MP.rar

nitroflare_com:
http://nitroflare.com/view/D1212D0D2258FF1/lper6.blakeyliveinzurich1958ARTWORK.rar
http://nitroflare.com/view/3883B7165D4D66C/lper6.blakeyliveinzurich1958CD1.part1.rar
http://nitroflare.com/view/F06EB5EB97FB34B/lper6.blakeyliveinzurich1958CD1.part2.rar
http://nitroflare.com/view/E81E8B103AD26D0/lper6.blakeyliveinzurich1958CD1MP.rar
http://nitroflare.com/view/7CC9E1647E5FDBA/lper6.blakeyliveinzurich1958CD2.part1.rar
http://nitroflare.com/view/1CCFF91805DB99F/lper6.blakeyliveinzurich1958CD2.part2.rar
http://nitroflare.com/view/EF3F68DB644A1DE/lper6.blakeyliveinzurich1958CD2MP.rar

Uploadable.ch:
http://www.uploadable.ch/file/CwYVrKr3qKXh/lper6.blakeyliveinzurich1958ARTWORK.rar
http://www.uploadable.ch/file/4eDD9zJV6Y88/lper6.blakeyliveinzurich1958CD1.part1.rar
http://www.uploadable.ch/file/ZVyaCq37HTtX/lper6.blakeyliveinzurich1958CD1.part2.rar
http://www.uploadable.ch/file/Xm8KbqKdDGJq/lper6.blakeyliveinzurich1958CD1MP.rar
http://www.uploadable.ch/file/5A7tdqPWCVmK/lper6.blakeyliveinzurich1958CD2.part1.rar
http://www.uploadable.ch/file/hdeVgTdk57jE/lper6.blakeyliveinzurich1958CD2.part2.rar
http://www.uploadable.ch/file/mJjdbFaRAPS6/lper6.blakeyliveinzurich1958CD2MP.rar

Links are Interchangeable - No Password - Single Extraction
Direct Download

Tags: Blakey, Messengers, Zurich, Records

Art Blakey & The Jazz Messengers - Live In Zurich 1958 (2010) [2CD] {Solar Records} Download via Hotfile Rapidshare Fileserve Megaupload & FileSonic, Art Blakey & The Jazz Messengers - Live In Zurich 1958 (2010) [2CD] {Solar Records} free torrent downloads included crack, serial, keygen.Art Blakey & The Jazz Messengers - Live In Zurich 1958 (2010) [2CD] {Solar Records} Fast Download via Rapidshare Hotfile Fileserve Filesonic Megaupload, Art Blakey & The Jazz Messengers - Live In Zurich 1958 (2010) [2CD] {Solar Records} Torrents and Emule Download or anything related.
Leave a Comment
Your Name:
E-Mail:
Add Comments:

Enter Code: