Charles Lloyd - Discovery! (1964) {2014 Japan Jazz Collection 1000 Columbia-RCA Series}

Download Now


Charles Lloyd - Discovery! (1964) {2014 Japan Jazz Collection 1000 Columbia-RCA Series}
Charles Lloyd - Discovery! (1964) {2014 Japan Jazz Collection 1000 Columbia-RCA Series}
EAC rip (secure mode) | FLAC (tracks)+CUE+LOG -> 317 Mb | MP3 @320 -> 114 Mb
Full Artwork @ 600 dpi (png) -> 187 Mb | 5% repair rar
© 2014 Columbia / Sony Music Japan | SICP 4277 | 2014 DSD Remaster
Jazz / Hard Bop / Soul Jazz / Saxophone

"Reissue with latest 2014 DSD remastering. Comes with liner notes. A wonderful bit of soul jazz - much less trippy than some of Charles Lloyd's later work, and handled with a soulful flair that's a mix of Coltrane spiritualism, with an even larger dose of the sort of post-Trane experiments in jazz that would crop up during the early 70s on smaller independent labels - a scene that Lloyd really influenced with albums like this! The record's quite advanced for its time - and features Charles' tenor and flute next to piano by Don Friedman, bass by either Richard Davis or Eddie Khan, and drums by Roy Haynes or JC Moses - on titles that include Lloyd's classic "Forest Flower", plus "Little Peace", "Love Song to A Baby", "Sweet Georgia Bright", and "Bizarre"."

Charles Lloyd - Discovery! (1964) {2014 Japan Jazz Collection 1000 Columbia-RCA Series}


Personnel:
Charles Lloyd - tenor sax and flute
Don Friedman - piano
Eddie Khan - bass
Roy Haynes - drums
Richard Davis - bass
J. C. Moses - drums

tracklist:
01 - Forest Flower
02 - How Can I Tell You
03 - Little Peace
04 - Bizzare
05 - Days Of Wine And Roses
06 - Sweet Georgia Bright
07 - Love Song To A Baby
08 - Ol' Five Spot

Exact Audio Copy V1.1 from 23. June 2015

EAC extraction logfile from 4. September 2015, 20:07

Charles Lloyd / Discovery!

Used drive : TSSTcorpCDDVDW SE-208DB Adapter: 7 ID: 0

Read mode : Secure
Utilize accurate stream : Yes
Defeat audio cache : Yes
Make use of C2 pointers : No

Read offset correction

: 6
Overread into Lead-In and Lead-Out : No
Fill up missing offset samples with silence : Yes
Delete leading and trailing silent blocks : No
Null samples used in CRC calculations : Yes
Used interface
: Installed external ASPI interface
Gap handling
: Appended to previous track

Used output format : User Defined Encoder
Selected bitrate : 1024 kBit/s
Quality : High
Add ID3 tag : No
Command line compressor : C:\Program Files (x86)\FLAC Frontend\tools\flac.exe
Additional command line options : -8 -V -T "ARTIST=%artist%" -T "TITLE=%title%" -T "ALBUM=%albumtitle%" -T "DATE=%year%" -T "TRACKNUMBER=%tracknr%" -T "TOTALTRACKS=%numtracks%" -T "GENRE=%genre%" -T "ALBUMARTIST=%albumartist%" -T "ALBUM ARTIST=%albumartist%" -T "COMMENT=EAC Secure Mode, Test & Copy, AccurateRip, FLAC -8" %source%

TOC of the extracted CD Track | Start | Length | Start sector | End sector
--1 | 0:00.00 | 7:54.14 | 0 | 35563 2 | 7:54.14 | 5:16.35 | 35564 | 59298 3 | 13:10.49 | 6:32.42 | 59299 | 88740 4 | 19:43.16 | 4:20.47 | 88741 | 108287 5 | 24:03.63 | 5:53.67 | 108288 | 134829 6 | 29:57.55 | 5:45.40 | 134830 | 160744 7 | 35:43.20 | 5:56.44 | 160745 | 187488 8 | 41:39.64 | 6:34.39 | 187489 | 217077

Track 1 Filename M:\_EAC\Charles Lloyd - Discovery! (1964) [FLAC] {2014 Japan Jazz Collection 1000 Columbia-RCA Series}\01 - Forest Flower.wav Pre-gap length 0:00:02.00 Peak level 99.5 %
Extraction speed 1.1 X
Track quality 100.0 %
Test CRC F5E19671
Copy CRC F5E19671
Accurately ripped (confidence 1) [699F9EF4] (AR v2)
Copy OK

Track 2 Filename M:\_EAC\Charles Lloyd - Discovery! (1964) [FLAC] {2014 Japan Jazz Collection 1000 Columbia-RCA Series}\02 - How Can I Tell You.wav Pre-gap length 0:00:01.08 Peak level 99.6 %
Extraction speed 1.2 X
Track quality 100.0 %
Test CRC B69BADB7
Copy CRC B69BADB7
Accurately ripped (confidence 1) [0C27FE9A] (AR v2)
Copy OK

Track 3 Filename M:\_EAC\Charles Lloyd - Discovery! (1964) [FLAC] {2014 Japan Jazz Collection 1000 Columbia-RCA Series}\03 - Little Peace.wav Pre-gap length 0:00:01.29 Peak level 98.0 %
Extraction speed 1.4 X
Track quality 100.0 %
Test CRC 793C7302
Copy CRC 793C7302
Accurately ripped (confidence 1) [CC7F8DD4] (AR v2)
Copy OK

Track 4 Filename M:\_EAC\Charles Lloyd - Discovery! (1964) [FLAC] {2014 Japan Jazz Collection 1000 Columbia-RCA Series}\04 - Bizzare.wav Pre-gap length 0:00:01.12 Peak level 99.9 %
Extraction speed 1.2 X
Track quality 99.9 %
Test CRC 3D25FBD9
Copy CRC 3D25FBD9
Accurately ripped (confidence 1) [D829D292] (AR v2)
Copy OK

Track 5 Filename M:\_EAC\Charles Lloyd - Discovery! (1964) [FLAC] {2014 Japan Jazz Collection 1000 Columbia-RCA Series}\05 - Days Of Wine And Roses.wav Pre-gap length 0:00:01.12 Peak level 99.6 %
Extraction speed 1.4 X
Track quality 99.9 %
Test CRC 8229F82B
Copy CRC 8229F82B
Accurately ripped (confidence 1) [94F7F2DB] (AR v2)
Copy OK

Track 6 Filename M:\_EAC\Charles Lloyd - Discovery! (1964) [FLAC] {2014 Japan Jazz Collection 1000 Columbia-RCA Series}\06 - Sweet Georgia Bright.wav Pre-gap length 0:00:01.23 Peak level 99.6 %
Extraction speed 1.6 X
Track quality 100.0 %
Test CRC 16BA4480
Copy CRC 16BA4480
Accurately ripped (confidence 1) [8644F952] (AR v2)
Copy OK

Track 7 Filename M:\_EAC\Charles Lloyd - Discovery! (1964) [FLAC] {2014 Japan Jazz Collection 1000 Columbia-RCA Series}\07 - Love Song To A Baby.wav Pre-gap length 0:00:01.29 Peak level 99.0 %
Extraction speed 1.5 X
Track quality 99.9 %
Test CRC 76A13232
Copy CRC 76A13232
Accurately ripped (confidence 1) [7EE62962] (AR v2)
Copy OK

Track 8 Filename M:\_EAC\Charles Lloyd - Discovery! (1964) [FLAC] {2014 Japan Jazz Collection 1000 Columbia-RCA Series}\08 - Ol' Five Spot.wav Pre-gap length 0:00:01.14 Peak level 98.9 %
Extraction speed 1.8 X
Track quality 100.0 %
Test CRC D0CAA7E8
Copy CRC D0CAA7E8
Accurately ripped (confidence 1) [8D75A936] (AR v2)
Copy OK

All tracks accurately ripped

No errors occurred

End of status report

==== Log checksum 35819CB2E71B6B3ADEF46BCDA7BDB9D8625582D626837A9A1CA3C1A7B4CD5455 ====

Charles Lloyd - Discovery! (1964) {2014 Japan Jazz Collection 1000 Columbia-RCA Series}

Charles Lloyd - Discovery! (1964) {2014 Japan Jazz Collection 1000 Columbia-RCA Series}






NEXT -> More 2014 Japan Jazz Collection 1000 Columbia-RCA Series...
DOWNLOAD LINKS
Buy Premium From My Links To Get Resumable Support & Max Speed & To Support Me


Links are Interchangeable - No Password - Single Extraction
Direct Download

Tags: Charles, Discovery, Collection, Columbia, Series

Charles Lloyd - Discovery! (1964) {2014 Japan Jazz Collection 1000 Columbia-RCA Series} Download via Hotfile Rapidshare Fileserve Megaupload & FileSonic, Charles Lloyd - Discovery! (1964) {2014 Japan Jazz Collection 1000 Columbia-RCA Series} free torrent downloads included crack, serial, keygen.Charles Lloyd - Discovery! (1964) {2014 Japan Jazz Collection 1000 Columbia-RCA Series} Fast Download via Rapidshare Hotfile Fileserve Filesonic Megaupload, Charles Lloyd - Discovery! (1964) {2014 Japan Jazz Collection 1000 Columbia-RCA Series} Torrents and Emule Download or anything related.
Leave a Comment
Your Name:
E-Mail:
Add Comments:

Enter Code: