( 少年ナイフ ) Shonen Knife - Rock Animals (1993) [US Version] RESTORED

Download Now


( 少年ナイフ ) Shonen Knife - Rock Animals (1993) [US Version] RESTORED
Shonen Knife - Rock Animals (1993) S Version
FLAC+CUE+LOG or MP3 CBR 320 | Complete Scanwork | 315 or 111 MB
US version | Virgin Records America # 819836-2

Tracklist:

01. Quavers
02. Concrete Animals
03. Butterfly Boy
04. Little Tree
05. Catnip Dream
06. Tomato Head
07. Another Day
08. Brown Mushrooms
09. Johnny Johnny Johnny
10. Cobra Versus Mongoose
11. Music Square

all songs written by Naoko Yamano, except "3, 5, 7 & 9" by Michie Nakatani

Exact Audio Copy V1.0 beta 1 from 15. November 2010

EAC extraction logfile from 10. March 2011, 1:14

Shonen Knife / Rock Animals (US version)

Used drive : PIONEER DVD-RW DVR-116D Adapter: 1 ID: 0

Read mode : Secure
Utilize accurate stream : Yes
Defeat audio cache : Yes
Make use of C2 pointers : No

Read offset correction

: 96
Overread into Lead-In and Lead-Out : No
Fill up missing offset samples with silence : Yes
Delete leading and trailing silent blocks : No
Null samples used in CRC calculations : Yes
Used interface
: Installed external ASPI interface

Used output format : Internal WAV Routines
Sample format : 44.100 Hz; 16 Bit; Stereo

TOC of the extracted CD Track | Start | Length | Start sector | End sector
--1 | 0:00.00 | 3:25.37 | 0 | 15411 2 | 3:25.37 | 4:30.15 | 15412 | 35676 3 | 7:55.52 | 5:01.33 | 35677 | 58284 4 | 12:57.10 | 3:56.17 | 58285 | 76001 5 | 16:53.27 | 4:32.63 | 76002 | 96464 6 | 21:26.15 | 5:23.27 | 96465 | 120716 7 | 26:49.42 | 4:36.65 | 120717 | 141481 8 | 31:26.32 | 4:36.10 | 141482 | 162191 9 | 36:02.42 | 2:49.23 | 162192 | 174889
10 | 38:51.65 | 4:17.02 | 174890 | 194166
11 | 43:08.67 | 4:56.48 | 194167 | 216414

Range status and errors

Selected range Filename C:\AvaxHome.ru\Shonen Knife - Rock Animals (1993) S version\Shonen Knife - Rock Animals (US version).wav Peak level 97.2 %
Extraction speed 0.7 X
Range quality 100.0 %
Test CRC 60B2AAAF
Copy CRC 60B2AAAF
Copy OK

No errors occurred


AccurateRip summary

Track 1 accurately ripped (confidence 25) [4270B5C6]
Track 2 accurately ripped (confidence 25) [D3EF4049]
Track 3 accurately ripped (confidence 25) [92DAEC5A]
Track 4 accurately ripped (confidence 25) [D8E8BD8F]
Track 5 accurately ripped (confidence 25) [89C711D8]
Track 6 accurately ripped (confidence 25) 91F5326
Track 7 accurately ripped (confidence 25) [C27C918A]
Track 8 accurately ripped (confidence 25) [7B2CF2F2]
Track 9 accurately ripped (confidence 25) [E7BC474F]
Track 10 accurately ripped (confidence 25) [6F56629C]
Track 11 accurately ripped (confidence 25) [1FBC0277]

All tracks accurately ripped

End of status report

==== Log checksum 61CF36E8BAD03EE394DF59C6A47E655CB44B479AB3B9BAE90C3C81B6B64AB7FC ====

Produced by Page Porrazzo and Shonen Knife
Mixed by Don Fleming except "7 & 11" by Akio Tanabe.

* Naoko Yamano - vocals, guitar, harmonica
* Michie Nakatani - vocals, bass, keyboards
* Atsuko Yamano - vocals, drums, percussion

Release Date: January 25, 1994
Format: Original Recording Reissued
Label: Virgin Records America
Catalog No.: 819836-2
DOWNLOAD LINKS
Buy Premium From My Links To Get Resumable Support & Max Speed & To Support Me


Links are Interchangeable - No Password - Single Extraction
Direct Download

Tags: Shonen, Animals, RESTORED

( 少年ナイフ ) Shonen Knife - Rock Animals (1993) [US Version] RESTORED Download via Hotfile Rapidshare Fileserve Megaupload & FileSonic, ( 少年ナイフ ) Shonen Knife - Rock Animals (1993) [US Version] RESTORED free torrent downloads included crack, serial, keygen.( 少年ナイフ ) Shonen Knife - Rock Animals (1993) [US Version] RESTORED Fast Download via Rapidshare Hotfile Fileserve Filesonic Megaupload, ( 少年ナイフ ) Shonen Knife - Rock Animals (1993) [US Version] RESTORED Torrents and Emule Download or anything related.
Leave a Comment
Your Name:
E-Mail:
Add Comments:

Enter Code: