Quorthon - Purity of Essence (1997)

Download Now

Quorthon - Purity of Essence (1997)

Quorthon - Purity of Essence (1997)
EAC | Flac(Image) + Cue + Log & MP3 CBR 320Kbps
2CD | Black Mark Production, BMCD 666-13 | ~ 710 or 231 Mb | Scans(600dpi, jpg) -> 75 Mb
Alternative Rock / Grunge / Indie Rock

"It's quite understandable for a fan of Bathory to be interested by Quorthon's solo project, aptly named Quorthon. However, if you're expecting thrashy viking metal or misanthropic black metal, you will be disappointed. The best way to describe Quorthon is as a modern grunge tinged hard rock band. There is a lot here that will entice an Alice in Chains fan more than a Bathory fan..."


Tracklist CD1:

01. Rock 'n Roll (0:04)
02. I've Had It Coming My Way (3:29)
03. When Our Day Is Through (4:26)
04. One of Those Days (3:59)
05. Cherrybutt & Firefly (3:32)
06. Television (3:41)
07. Hit My Head (5:28)
08. Hump for Fun (3:13)
09. Outta Space (4:06)
10. Fade Away (6:14)
11. I Want Out (4:15)
12. Daddy's Girl (4:18)
13. Coming Down in Pieces (5:50)

Exact Audio Copy V1.1 from 23. June 2015

EAC extraction logfile from 27. August 2015, 7:18

Quorthon / Purity of Essence (CD1)

Used drive : Optiarc DVD RW AD-7203A Adapter: 1 ID: 1

Read mode : Secure
Utilize accurate stream : Yes
Defeat audio cache : Yes
Make use of C2 pointers : No

Read offset correction

: 48
Overread into Lead-In and Lead-Out : No
Fill up missing offset samples with silence : Yes
Delete leading and trailing silent blocks : No
Null samples used in CRC calculations : Yes
Used interface
: Native Win32 interface for Win NT & 2000

Used output format : User Defined Encoder
Selected bitrate : 128 kBit/s
Quality : High
Add ID3 tag : No
Command line compressor : C:\Program Files (x86)\Exact Audio Copy\Flac\flac.exe
Additional command line options : -V -8 -T "Date=%year%" -T "Genre=%genre%" %source%

TOC of the extracted CD Track | Start | Length | Start sector | End sector
--1 | 0:00.00 | 0:04.00 | 0 | 299 2 | 0:04.00 | 3:29.05 | 300 | 15979 3 | 3:33.05 | 4:25.42 | 15980 | 35896 4 | 7:58.47 | 3:59.13 | 35897 | 53834 5 | 11:57.60 | 3:32.32 | 53835 | 69766 6 | 15:30.17 | 3:41.25 | 69767 | 86366 7 | 19:11.42 | 5:28.15 | 86367 | 110981 8 | 24:39.57 | 3:12.45 | 110982 | 125426 9 | 27:52.27 | 4:06.28 | 125427 | 143904
10 | 31:58.55 | 6:14.05 | 143905 | 171959
11 | 38:12.60 | 4:14.57 | 171960 | 191066
12 | 42:27.42 | 4:18.35 | 191067 | 210451
13 | 46:46.02 | 5:50.33 | 210452 | 236734

Range status and errors

Selected range Filename C:\subrr\Quorthon - Purity of Essence (CD1).wav Peak level 96.9 %
Extraction speed 3.8 X
Range quality 100.0 %
Test CRC 5317EF9A
Copy CRC 5317EF9A
Copy OK

No errors occurred


AccurateRip summary

Track 1 not present in database
Track 2 accurately ripped (confidence 5) [FEC19C37] (AR v2)
Track 3 accurately ripped (confidence 6) [90837C7E] (AR v2)
Track 4 accurately ripped (confidence 6) [AAD982D8] (AR v2)
Track 5 accurately ripped (confidence 6) 5F49A45 (AR v2)
Track 6 accurately ripped (confidence 6) [3FB1A8D0] (AR v2)
Track 7 accurately ripped (confidence 6) [7BE6CF62] (AR v2)
Track 8 accurately ripped (confidence 6) [EDB4FB28] (AR v2)
Track 9 accurately ripped (confidence 6) [D028FF9F] (AR v2)
Track 10 accurately ripped (confidence 6) [8A2CEEC6] (AR v2)
Track 11 accurately ripped (confidence 6) [C9DF2D0C] (AR v2)
Track 12 accurately ripped (confidence 6) [0247E56C] (AR v2)
Track 13 accurately ripped (confidence 5) [27F78C7D] (AR v2)

12 трек(и) скопированы точно
1 трек(и) не содержатся в базе AccurateRip

Some tracks could not be verified as accurate

End of status report

- CUETools DB Plugin V2.1.6

[CTDB TOCID: EMS79qZYXj5tmYzsU3atwspnu08-] found
Submit result: EMS79qZYXj5tmYzsU3atwspnu08- has been confirmed
Track | CTDB Status
1 | (6/6) Accurately ripped
2 | (6/6) Accurately ripped
3 | (6/6) Accurately ripped
4 | (6/6) Accurately ripped
5 | (6/6) Accurately ripped
6 | (6/6) Accurately ripped
7 | (6/6) Accurately ripped
8 | (6/6) Accurately ripped
9 | (6/6) Accurately ripped
10 | (6/6) Accurately ripped
11 | (6/6) Accurately ripped
12 | (6/6) Accurately ripped
13 | (6/6) Accurately ripped

==== Log checksum FB609004DB3AD3EA44DC2641BFC0BD0B8F5EE5F88C748BA74A540C542CB18DC7 ====

foobar2000 1.2.9 / Dynamic Range Meter 1.1.1
log date: 2015-09-09 01:07:06

Analyzed: Quorthon / Purity of Essence (CD1)

DR Peak RMS Duration Track

DR12 -3.81 dB -15.66 dB 0:04 01-Rock 'n Roll
DR7 -0.27 dB -7.93 dB 3:29 02-I've Had It Coming My Way
DR8 -0.27 dB -8.97 dB 4:26 03-When Our Day Is Through
DR8 -0.27 dB -9.49 dB 3:59 04-One of Those Days
DR7 -0.27 dB -8.63 dB 3:32 05-Cherrybutt & Firefly
DR8 -0.27 dB -9.22 dB 3:41 06-Television
DR8 -0.27 dB -9.58 dB 5:28 07-Hit My Head
DR8 -0.27 dB -8.91 dB 3:13 08-Hump for Fun
DR7 -0.27 dB -8.99 dB 4:06 09-Outta Space
DR10 -1.17 dB -14.16 dB 6:14 10-Fade Away
DR7 -0.27 dB -8.86 dB 4:15 11-I Want Out
DR8 -0.27 dB -9.14 dB 4:18 12-Daddy's Girl
DR8 -0.27 dB -8.59 dB 5:50 13-Coming Down in Pieces

Number of tracks: 13
Official DR value: DR8

Samplerate: 44100 Hz
Channels: 2
Bits per sample: 16
Bitrate: 991 kbps
Codec: FLAC

[CUETools log; Date: 09.09.2015 0:51:31; Version: 2.1.4]
[CTDB TOCID: EMS79qZYXj5tmYzsU3atwspnu08-] found.
Track | CTDB Status
1 | (7/7) Accurately ripped
2 | (7/7) Accurately ripped
3 | (7/7) Accurately ripped
4 | (7/7) Accurately ripped
5 | (7/7) Accurately ripped
6 | (7/7) Accurately ripped
7 | (7/7) Accurately ripped
8 | (7/7) Accurately ripped
9 | (7/7) Accurately ripped
10 | (7/7) Accurately ripped
11 | (7/7) Accurately ripped
12 | (7/7) Accurately ripped
13 | (7/7) Accurately ripped
[AccurateRip ID: 00162a82-00e78c62-a80c540d] found.
Track [ CRC | V2 ] Status
01 [55dcc273|2014f15c] (00+03/03) Accurately ripped
02 [e6177ca9|fec19c37] (06+05/11) Accurately ripped
03 [2f8c87ca|90837c7e] (06+06/12) Accurately ripped
04 [983a7b48|aad982d8] (06+06/12) Accurately ripped
05 [11a081c9|b5f49a45] (06+06/12) Accurately ripped
06 [c0183c3f|3fb1a8d0] (06+06/12) Accurately ripped
07 [98a347b5|7be6cf62] (06+06/12) Accurately ripped
08 [4b88b754|edb4fb28] (06+06/12) Accurately ripped
09 b5a385c|d028ff9f (06+06/12) Accurately ripped
10 [49cf781b|8a2ceec6] (06+06/12) Accurately ripped
11 [3d0b5a90|c9df2d0c] (06+06/12) Accurately ripped
12 [c1f9a195|0247e56c] (06+06/12) Accurately ripped
13 53086a5|27f78c7d (06+05/11) Accurately ripped

Track Peak [ CRC32 ] [W/O NULL] [ LOG ]
-- 96,9 [5317EF9A] [2D24E191] CRC32
01 64,4 [D887E3EA] [25D884CF]
02 96,9 D6D6A09 [ACBF7E68]
03 96,9 [ACD3A0A1] [D990C0F9]
04 96,9 [46DB7E79] [2E4B0024]
05 96,9 [5F012B6E] [FF16E6CE]
06 96,9 [62D3FC20] [E8EF31C4]
07 96,9 B5F39A1 [558B6D4A]
08 96,9 [7B5F9880] [69721AA7]
09 96,9 [5BA12363] [F0D08B97]
10 87,4 [E9590A91] [EF399AB6]
11 96,9 [ABFBDE7F] [5FF0AC7D]
12 96,9 [ADD516EE] [230C1CA1]
13 96,9 [41BBC057] [50F3EE48]

Quorthon - Purity of Essence (1997)

Tracklist CD2:

01. Roller Coaster (4:07)
02. It's OK (4:18)
03. All in All I Know (4:18)
04. No Life at All (2:38)
05. An Inch Above the Ground (3:34)
06. The Notforgettin' (4:09)
07. Deep (5:33)
08. Label on the Wind (6:48)
09. Just the Same (4:54)
10. You Just Got to Live (5:03)

Exact Audio Copy V1.1 from 23. June 2015

EAC extraction logfile from 27. August 2015, 22:45

Quorthon / Purity of Essence (CD2)

Used drive : Optiarc DVD RW AD-7203A Adapter: 1 ID: 1

Read mode : Secure
Utilize accurate stream : Yes
Defeat audio cache : Yes
Make use of C2 pointers : No

Read offset correction

: 48
Overread into Lead-In and Lead-Out : No
Fill up missing offset samples with silence : Yes
Delete leading and trailing silent blocks : No
Null samples used in CRC calculations : Yes
Used interface
: Native Win32 interface for Win NT & 2000

Used output format : User Defined Encoder
Selected bitrate : 128 kBit/s
Quality : High
Add ID3 tag : No
Command line compressor : C:\Program Files (x86)\Exact Audio Copy\Flac\flac.exe
Additional command line options : -V -8 -T "Date=%year%" -T "Genre=%genre%" %source%

TOC of the extracted CD Track | Start | Length | Start sector | End sector
--1 | 0:00.00 | 4:06.42 | 0 | 18491 2 | 4:06.42 | 4:18.23 | 18492 | 37864 3 | 8:24.65 | 4:18.37 | 37865 | 57251 4 | 12:43.27 | 2:38.23 | 57252 | 69124 5 | 15:21.50 | 3:34.00 | 69125 | 85174 6 | 18:55.50 | 4:09.12 | 85175 | 103861 7 | 23:04.62 | 5:32.58 | 103862 | 128819 8 | 28:37.45 | 6:47.42 | 128820 | 159386 9 | 35:25.12 | 4:54.03 | 159387 | 181439
10 | 40:19.15 | 5:03.07 | 181440 | 204171

Range status and errors

Selected range Filename C:\subrr\Quorthon - Purity of Essence (CD2).wav Peak level 97.0 %
Extraction speed 3.6 X
Range quality 100.0 %
Test CRC 9DA0EC82
Copy CRC 9DA0EC82
Copy OK

No errors occurred


AccurateRip summary

Track 1 accurately ripped (confidence 5) [816E07E2] (AR v2)
Track 2 accurately ripped (confidence 6) [CE37FBB4] (AR v2)
Track 3 accurately ripped (confidence 6) [E7EBFA5E] (AR v2)
Track 4 accurately ripped (confidence 6) [A80CD6D0] (AR v2)
Track 5 accurately ripped (confidence 6) [F63B5E82] (AR v2)
Track 6 accurately ripped (confidence 5) [8CE6EC9A] (AR v2)
Track 7 accurately ripped (confidence 5) [1AE724DA] (AR v2)
Track 8 accurately ripped (confidence 6) [078ADE61] (AR v2)
Track 9 accurately ripped (confidence 6) 77C22AD (AR v2)
Track 10 accurately ripped (confidence 6) [FAE4E6E4] (AR v2)

All tracks accurately ripped

End of status report

- CUETools DB Plugin V2.1.6

[CTDB TOCID: uX9GUTilgTz9Q3YB84a.JU3XTDA-] found
Submit result: uX9GUTilgTz9Q3YB84a.JU3XTDA- has been confirmed
Track | CTDB Status
1 | (6/6) Accurately ripped
2 | (6/6) Accurately ripped
3 | (6/6) Accurately ripped
4 | (6/6) Accurately ripped
5 | (6/6) Accurately ripped
6 | (6/6) Accurately ripped
7 | (6/6) Accurately ripped
8 | (6/6) Accurately ripped
9 | (6/6) Accurately ripped
10 | (6/6) Accurately ripped

==== Log checksum 1FC34DA99A812B4471AE635DDA2C9AE6C8DB4AAC606D0D098CD1F7DAB9448EA7 ====

foobar2000 1.2.9 / Dynamic Range Meter 1.1.1
log date: 2015-09-09 01:07:32

Analyzed: Quorthon / Purity of Essence (CD2)

DR Peak RMS Duration Track

DR7 -0.27 dB -8.41 dB 4:07 01-Roller Coaster
DR7 -0.26 dB -8.48 dB 4:18 02-It's OK
DR8 -0.27 dB -9.59 dB 4:18 03-All in All I Know
DR7 -0.27 dB -8.42 dB 2:38 04-No Life at All
DR7 -0.27 dB -9.40 dB 3:34 05-An Inch Above the Ground
DR7 -0.27 dB -8.50 dB 4:09 06-The Notforgettin'
DR7 -0.27 dB -9.94 dB 5:33 07-Deep
DR7 -0.27 dB -9.45 dB 6:48 08-Label on the Wind
DR12 -0.29 dB -16.95 dB 4:54 09-Just the Same
DR9 -0.27 dB -10.81 dB 5:03 10-You Just Got to Live

Number of tracks: 10
Official DR value: DR8

Samplerate: 44100 Hz
Channels: 2
Bits per sample: 16
Bitrate: 974 kbps
Codec: FLAC

[CUETools log; Date: 09.09.2015 0:58:55; Version: 2.1.4]
[CTDB TOCID: uX9GUTilgTz9Q3YB84a.JU3XTDA-] found.
Track | CTDB Status
1 | (7/7) Accurately ripped
2 | (7/7) Accurately ripped
3 | (7/7) Accurately ripped
4 | (7/7) Accurately ripped
5 | (7/7) Accurately ripped
6 | (7/7) Accurately ripped
7 | (7/7) Accurately ripped
8 | (7/7) Accurately ripped
9 | (7/7) Accurately ripped
10 | (7/7) Accurately ripped
[AccurateRip ID: 000ff456-008186b8-800aa20a] found.
Track [ CRC | V2 ] Status
01 [79466220|816e07e2] (06+05/11) Accurately ripped
02 [43c58264|ce37fbb4] (06+06/12) Accurately ripped
03 [8c8ec237|e7ebfa5e] (06+06/12) Accurately ripped
04 [51d4fd27|a80cd6d0] (06+06/12) Accurately ripped
05 [992c6a4b|f63b5e82] (06+06/12) Accurately ripped
06 [0f550511|8ce6ec9a] (06+05/11) Accurately ripped
07 [d10941f1|1ae724da] (06+05/11) Accurately ripped
08 [4ca0c00d|078ade61] (06+06/12) Accurately ripped
09 [2670ac70|b77c22ad] (06+06/12) Accurately ripped
10 [82f4b0f1|fae4e6e4] (06+06/12) Accurately ripped

Track Peak [ CRC32 ] [W/O NULL] [ LOG ]
-- 96,9 [9DA0EC82] [EECD0EE7] CRC32
01 96,9 [C1497980] [4BFA0E6D]
02 96,9 [493101B2] [73BFF690]
03 96,9 [2AAE8958] [8C843243]
04 96,9 [4B88B7E3] [E3E03AE6]
05 96,9 [DF2155C4] [ADE2D049]
06 96,9 [8EBCA79C] [997C81EB]
07 96,9 [1437993A] [460F8739]
08 96,9 [2CEF1E09] 4213431
09 96,7 [98136B59] [7E527069]
10 96,9 [71505E9F] [A6A78AAD]

Quorthon - Purity of Essence (1997)

DOWNLOAD LINKS
Buy Premium From My Links To Get Resumable Support & Max Speed & To Support Me

Rapidgator.net:
http://rapidgator.net/file/3601c8a190100749b018f5f14a2e4596/7fnml.Quorthon97POECD1flac.rar.html
http://rapidgator.net/file/2e8dfe460f1d7a94af825fa579f2d08a/7fnml.Quorthon97POECD1mp3320.rar.html
http://rapidgator.net/file/72cad72e3d0fe2ad79026798ae40c4b9/7fnml.Quorthon97POECD2flac.rar.html
http://rapidgator.net/file/d4c3e324f50e77a7c2089bb4abccb722/7fnml.Quorthon97POECD2mp3320.rar.html
http://rapidgator.net/file/026166afff252fe36858d79a75d2633e/7fnml.Quorthon97POEScans.rar.html

Uploaded.net:
http://uploaded.net/file/e38av3sv/7fnml.Quorthon97POECD1flac.rar
http://uploaded.net/file/kvxl92l2/7fnml.Quorthon97POECD1mp3320.rar
http://uploaded.net/file/pik9azyc/7fnml.Quorthon97POECD2flac.rar
http://uploaded.net/file/7934tcxt/7fnml.Quorthon97POECD2mp3320.rar
http://uploaded.net/file/gpnnn2b2/7fnml.Quorthon97POEScans.rar

nitroflare_com:
http://nitroflare.com/view/729803493385514/7fnml.Quorthon97POECD1flac.rar
http://nitroflare.com/view/1C276DE7843DE3B/7fnml.Quorthon97POECD1mp3320.rar
http://nitroflare.com/view/2404AE47DB3C96B/7fnml.Quorthon97POECD2flac.rar
http://nitroflare.com/view/414B5CD59418DB7/7fnml.Quorthon97POECD2mp3320.rar
http://nitroflare.com/view/D35286A460AB5F5/7fnml.Quorthon97POEScans.rar

Uploadable.ch:
http://www.uploadable.ch/file/bdU7KkfWjktR/7fnml.Quorthon97POECD1flac.rar
http://www.uploadable.ch/file/SXTqpEu2PyjX/7fnml.Quorthon97POECD1mp3320.rar
http://www.uploadable.ch/file/d7msU5Befq5h/7fnml.Quorthon97POECD2flac.rar
http://www.uploadable.ch/file/cGEkf3mMEWhh/7fnml.Quorthon97POECD2mp3320.rar
http://www.uploadable.ch/file/FpWNtFxcUVBd/7fnml.Quorthon97POEScans.rar

Links are Interchangeable - No Password - Single Extraction
Direct Download

Tags: Quorthon, Purity, Essence

Quorthon - Purity of Essence (1997) Download via Hotfile Rapidshare Fileserve Megaupload & FileSonic, Quorthon - Purity of Essence (1997) free torrent downloads included crack, serial, keygen.Quorthon - Purity of Essence (1997) Fast Download via Rapidshare Hotfile Fileserve Filesonic Megaupload, Quorthon - Purity of Essence (1997) Torrents and Emule Download or anything related.
Leave a Comment
Your Name:
E-Mail:
Add Comments:

Enter Code: