Art Blakey and The Jazz Messengers - Album Of The Year (1981) {2015 Japan Timeless Jazz Master Collection Complete Series}

Download Now


Art Blakey and The Jazz Messengers - Album Of The Year (1981) {2015 Japan Timeless Jazz Master Collection Complete Series}
Art Blakey and The Jazz Messengers - Album Of The Year (1981) {2015 Japan Timeless Jazz Master Collection Complete Series}
EAC rip (secure mode) | FLAC (tracks)+CUE+LOG -> 309 Mb | MP3 @320 -> 102 Mb
Full Artwork @ 600 dpi (png) -> 201 Mb | 5% repair rar
© 2015 Timeless Records / Solid Records Japan / Ultra-Vibe | CDSOL-6306
Jazz / Hard Bop

"Reissue with the latest remastering. Features original cover artwork. Comes with a descripton in Japanese. Out of hundreds of jazz CD's I own or have heard, this will always rank in my top ten. Recorded in 1981 with the awesome lineup of - Art Blakey (drums), Charles Fambrough (bass), Wynton Marsalis (trumpet), Bill Pierce (tenor sax), Bobby Watson (alto sax), and James Williams (piano). A little over 42 minutes long, this disc is as perfect as it gets and there is absolutely no filler! It's incredible to hear Blakey play... he is so good that he keeps a perfect rhythm going but then inserts offbeat syncopated and ghost beats on top of it. His style of playing always amazes me. Of course the rest of the band kick serious tail also and never miss a beat. Great tunes, outstanding arrangements, awesome solos, what else is there?"

Art Blakey and The Jazz Messengers - Album Of The Year (1981) {2015 Japan Timeless Jazz Master Collection Complete Series}


Ultra-Vibe INFO

Personnel:
Art Blakey - drums
Wynton Marsalis - trumpet
Robert Watson - alto saxophone
Bill Pierce - tenor saxophone
James Williams - piano
Charles Fambrough - bass

tracklist:
01 - Cheryl
02 - Ms. B.C.
03 - In Case You Missed It
04 - Little Man
05 - Witch Hunt
06 - Soulful Mister Timmons

Exact Audio Copy V1.1 from 23. June 2015

EAC extraction logfile from 9. September 2015, 16:31

Art Blakey & The Jazz Messengers / Album Of The Year

Used drive : TSSTcorpCDDVDW SE-208DB Adapter: 7 ID: 0

Read mode : Secure
Utilize accurate stream : Yes
Defeat audio cache : Yes
Make use of C2 pointers : No

Read offset correction

: 6
Overread into Lead-In and Lead-Out : No
Fill up missing offset samples with silence : Yes
Delete leading and trailing silent blocks : No
Null samples used in CRC calculations : Yes
Used interface
: Installed external ASPI interface
Gap handling
: Appended to previous track

Used output format : User Defined Encoder
Selected bitrate : 1024 kBit/s
Quality : High
Add ID3 tag : No
Command line compressor : C:\Program Files (x86)\FLAC Frontend\tools\flac.exe
Additional command line options : -8 -V -T "ARTIST=%artist%" -T "TITLE=%title%" -T "ALBUM=%albumtitle%" -T "DATE=%year%" -T "TRACKNUMBER=%tracknr%" -T "TOTALTRACKS=%numtracks%" -T "GENRE=%genre%" -T "ALBUMARTIST=%albumartist%" -T "ALBUM ARTIST=%albumartist%" -T "COMMENT=EAC Secure Mode, Test & Copy, AccurateRip, FLAC -8" %source%

TOC of the extracted CD Track | Start | Length | Start sector | End sector
--1 | 0:00.00 | 5:23.33 | 0 | 24257 2 | 5:23.33 | 6:47.03 | 24258 | 54785 3 | 12:10.36 | 8:53.67 | 54786 | 94827 4 | 21:04.28 | 7:19.04 | 94828 | 127756 5 | 28:23.32 | 6:25.74 | 127757 | 156705 6 | 34:49.31 | 7:48.32 | 156706 | 191837

Track 1 Filename M:\_EAC\Art Blakey - Album Of The Year (1981) [FLAC] {2015 Japan Timeless Jazz Master Collection}\01 - Cheryl.wav Pre-gap length 0:00:02.00 Peak level 96.6 %
Extraction speed 2.7 X
Track quality 100.0 %
Test CRC 5821F4BC
Copy CRC 5821F4BC
Accurately ripped (confidence 1) [2C4EA2A6] (AR v2)
Copy OK

Track 2 Filename M:\_EAC\Art Blakey - Album Of The Year (1981) [FLAC] {2015 Japan Timeless Jazz Master Collection}\02 - Ms. B.C..wav Peak level 96.6 %
Extraction speed 2.9 X
Track quality 99.9 %
Test CRC B879A419
Copy CRC B879A419
Accurately ripped (confidence 1) [3AECBFDF] (AR v2)
Copy OK

Track 3 Filename M:\_EAC\Art Blakey - Album Of The Year (1981) [FLAC] {2015 Japan Timeless Jazz Master Collection}\03 - In Case You Missed It.wav Peak level 96.6 %
Extraction speed 3.8 X
Track quality 100.0 %
Test CRC 301E9370
Copy CRC 301E9370
Accurately ripped (confidence 1) [8D8F3AD7] (AR v2)
Copy OK

Track 4 Filename M:\_EAC\Art Blakey - Album Of The Year (1981) [FLAC] {2015 Japan Timeless Jazz Master Collection}\04 - Little Man.wav Peak level 96.6 %
Extraction speed 4.2 X
Track quality 100.0 %
Test CRC 0D0D07FD
Copy CRC 0D0D07FD
Accurately ripped (confidence 1) [30A16263] (AR v2)
Copy OK

Track 5 Filename M:\_EAC\Art Blakey - Album Of The Year (1981) [FLAC] {2015 Japan Timeless Jazz Master Collection}\05 - Witch Hunt.wav Peak level 96.6 %
Extraction speed 4.5 X
Track quality 100.0 %
Test CRC BE3B6B83
Copy CRC BE3B6B83
Accurately ripped (confidence 1) [0E23795C] (AR v2)
Copy OK

Track 6 Filename M:\_EAC\Art Blakey - Album Of The Year (1981) [FLAC] {2015 Japan Timeless Jazz Master Collection}\06 - Soulful Mister Timmons.wav Peak level 96.6 %
Extraction speed 4.3 X
Track quality 99.9 %
Test CRC BA62B72D
Copy CRC BA62B72D
Accurately ripped (confidence 1) [631D6697] (AR v2)
Copy OK

All tracks accurately ripped

No errors occurred

End of status report

==== Log checksum A2B7DBCEC4E9C80BB1305B2856E97C6618629E4EDEC44B09DF5C53A18CC20F7C ====

Art Blakey and The Jazz Messengers - Album Of The Year (1981) {2015 Japan Timeless Jazz Master Collection Complete Series}

Art Blakey and The Jazz Messengers - Album Of The Year (1981) {2015 Japan Timeless Jazz Master Collection Complete Series}

DOWNLOAD LINKS
(Premium Recommended)


Links are Interchangeable - No Password - Single Extraction
Direct Download

Tags: Blakey, Messengers, Timeless, Master, Collection, Complete, Series

Art Blakey and The Jazz Messengers - Album Of The Year (1981) {2015 Japan Timeless Jazz Master Collection Complete Series} Download via Hotfile Rapidshare Fileserve Megaupload & FileSonic, Art Blakey and The Jazz Messengers - Album Of The Year (1981) {2015 Japan Timeless Jazz Master Collection Complete Series} free torrent downloads included crack, serial, keygen.Art Blakey and The Jazz Messengers - Album Of The Year (1981) {2015 Japan Timeless Jazz Master Collection Complete Series} Fast Download via Rapidshare Hotfile Fileserve Filesonic Megaupload, Art Blakey and The Jazz Messengers - Album Of The Year (1981) {2015 Japan Timeless Jazz Master Collection Complete Series} Torrents and Emule Download or anything related.
Leave a Comment
Your Name:
E-Mail:
Add Comments:

Enter Code: