Alberto Rosado - Musica Ricercata: Gyorgy Ligeti, Olivier Messiaen, Toru Takemitsu, John Cage (2001)

Download Now

Alberto Rosado - Musica Ricercata: Gyorgy Ligeti, Olivier Messiaen, Toru Takemitsu, John Cage (2001)

Alberto Rosado - Musica Ricercata: György Ligeti, Olivier Messiaen, Toru Takemitsu, John Cage (2001)
EAC | FLAC | Image (Cue&Log) ~ 274 Mb (incl 5%) | Mp3 (CBR320) ~ 238 Mb (incl 5%) | Scans included
Genre: Classical | Label: Verso | # VRS 2006 | Time: 01:17:06

"Alberto Rosado showcases some of the most significant modern composers in this well-considered programme. Inevitably he's up against fierce competition, not least Pierre-Laurent Aimard's recordings of both Ligeti's Ricercata (included on the disc which received Gramophone's Contemporary Award in 1997) and the complete Vingt Regards."



Tracklist:

György Ligeti (1923-2006)
Musica Ricercata:
01. I. Sostenuto - Misurato - Prestissimo (02:33)
02. II. Mesto, rigido e cerimoniale (03:35)
03. III. Allegro con spirito (01:11)
04. IV. Tempo de valse (poco vivace - "a l'orgue de Barbarie") (02:26)
05. V. Rubato. Lamentoso (03:00)
06. VI. Allegro molto capriccioso (00:55)
07. VII. Cantabile, molto legato (04:04)
08. VIII. Vivace. Energico (01:13)
09. IX. Adagio. Mesto - Allegro maestroso (02:23)
10. X. Vivace. Capriccioso (01:25)
11. XI. Andante misurato e tranquillo (04:01)

Olivier Messiaen (1908-1992)
Vingt regards sur l'enfant Jésus:
12. II. Regard de l'etoile: Modere (03:16)
13. IV. Regard de la Vierge: Bien modere (05:58)
14. VIII. Regard des hauters: Vif (02:31)
15. XI. Premiere communion de la Vierge: Tres lent (07:12)
16. XIV. Regard des Anges: Tres vif - Modere (05:16)
17. XVI. Regard des prophetes, des bergers et des Mages: Modere (03:23)
18. VII. Regard de la Croix: Bien modere (04:46)

Toru Takemitsu (1930-1996)
Uninterrupted Rests:
19. I. Slowly,sadly and if to converse with (01:58)
20. II. Quietly and with a cruel reverberation (03:54)
21. III. A song of love (01:22)

John Cage (1912-1992)
22. A Room (01:21)
23. In a landscape (09:13)


Exact Audio Copy V1.0 beta 1 from 15. November 2010

EAC extraction logfile from 27. November 2012, 21:10

Alberto Rosado / Musica Ricercata

Used drive : Optiarc DVD RW AD-7203A Adapter: 4 ID: 1

Read mode : Secure
Utilize accurate stream : Yes
Defeat audio cache : Yes
Make use of C2 pointers : No

Read offset correction

: 48
Overread into Lead-In and Lead-Out : No
Fill up missing offset samples with silence : Yes
Delete leading and trailing silent blocks : No
Null samples used in CRC calculations : Yes
Used interface
: Native Win32 interface for Win NT & 2000

Used output format : User Defined Encoder
Selected bitrate : 128 kBit/s
Quality : High
Add ID3 tag : No
Command line compressor : C:\Program Files\FLAC\flac.exe
Additional command line options : -T "COMMENT=Ripped by GFox" -8 -V %s

TOC of the extracted CD Track | Start | Length | Start sector | End sector
--1 | 0:00.00 | 2:33.62 | 0 | 11536 2 | 2:33.62 | 3:35.18 | 11537 | 27679 3 | 6:09.05 | 1:11.53 | 27680 | 33057 4 | 7:20.58 | 2:26.01 | 33058 | 44008 5 | 9:46.59 | 3:00.27 | 44009 | 57535 6 | 12:47.11 | 0:55.28 | 57536 | 61688 7 | 13:42.39 | 4:04.32 | 61689 | 80020 8 | 17:46.71 | 1:13.71 | 80021 | 85566 9 | 19:00.67 | 2:23.53 | 85567 | 96344
10 | 21:24.45 | 1:25.06 | 96345 | 102725
11 | 22:49.51 | 4:01.15 | 102726 | 120815
12 | 26:50.66 | 3:16.05 | 120816 | 135520
13 | 30:06.71 | 5:58.01 | 135521 | 162371
14 | 36:04.72 | 2:31.03 | 162372 | 173699
15 | 38:36.00 | 7:12.33 | 173700 | 206132
16 | 45:48.33 | 5:16.65 | 206133 | 229897
17 | 51:05.23 | 3:23.20 | 229898 | 245142
18 | 54:28.43 | 4:46.55 | 245143 | 266647
19 | 59:15.23 | 1:58.48 | 266648 | 275545
20 | 61:13.71 | 3:54.59 | 275546 | 293154
21 | 65:08.55 | 1:22.42 | 293155 | 299346
22 | 66:31.22 | 1:21.35 | 299347 | 305456
23 | 67:52.57 | 9:13.18 | 305457 | 346949

Range status and errors

Selected range Filename D:\EAC\Alberto Rosado - Musica Ricercata.wav Peak level 100.0 %
Extraction speed 0.4 X
Range quality 99.9 %
Test CRC EF678913
Copy CRC EF678913
Copy OK

No errors occurred


AccurateRip summary

Track 1 not present in database
Track 2 not present in database
Track 3 not present in database
Track 4 not present in database
Track 5 not present in database
Track 6 not present in database
Track 7 not present in database
Track 8 not present in database
Track 9 not present in database
Track 10 not present in database
Track 11 not present in database
Track 12 not present in database
Track 13 not present in database
Track 14 not present in database
Track 15 not present in database
Track 16 not present in database
Track 17 not present in database
Track 18 not present in database
Track 19 not present in database
Track 20 not present in database
Track 21 not present in database
Track 22 not present in database
Track 23 not present in database

None of the tracks are present in the AccurateRip database

End of status report

==== Log checksum 67448FE004ABA404519E50BF82E0C265E87E187E2095C4F8A9C00EF88C3E2057 ====

foobar2000 1.2 / Dynamic Range Meter 1.1.1
log date: 2015-09-09 23:14:27

Analyzed: Alberto Rosado / Musica Ricercata

DR Peak RMS Duration Track

DR15 0.00 dB -21.39 dB 2:34 01-Ligeti - Musica Ricercata - I. Sostenuto - Misurato - Prestissimo
DR16 -3.37 dB -25.98 dB 3:35 02-Ligeti - Musica Ricercata - II. Mesto, rigido e cerimoniale
DR14 -2.37 dB -21.38 dB 1:12 03-Ligeti - Musica Ricercata - III. Allegro con spirito
DR15 -4.29 dB -24.54 dB 2:26 04-Ligeti - Musica Ricercata - IV. Tempo de valse (poco vivace a l'orgue de Barb...
DR14 -1.06 dB -21.03 dB 3:00 05-Ligeti - Musica Ricercata - V. Rubato. Lamentoso
DR12 0.00 dB -20.14 dB 0:55 06-Ligeti - Musica Ricercata - VI. Allegro molto capriccioso
DR14 -9.50 dB -28.26 dB 4:04 07-Ligeti - Musica Ricercata - VII. Cantabile, molto legato
DR14 -0.86 dB -17.49 dB 1:14 08-Ligeti - Musica Ricercata - VIII. Vivace. Energico
DR14 0.00 dB -21.35 dB 2:24 09-Ligeti - Musica Ricercata - IX. Adagio. Mesto - Allegro maestroso
DR12 0.00 dB -18.52 dB 1:25 10-Ligeti - Musica Ricercata - X. Vivace. Capriccioso
DR17 -0.90 dB -25.30 dB 4:01 11-Ligeti - Musica Ricercata - XI. Andante misurato e tranquillo
DR17 -0.04 dB -23.13 dB 3:16 12-Messiaen - Vingt regards - II. Regard de l'etoile: Modere
DR16 0.00 dB -22.07 dB 5:58 13-Messiaen - Vingt regards - IV. Regard de la Vierge: Bien modere
DR15 -1.84 dB -19.61 dB 2:31 14-Messiaen - Vingt regards - VIII. Regard des hauters: Vif
DR15 0.00 dB -21.14 dB 7:12 15-Messiaen - Vingt regards - XI. Premiere communion de la Vierge: Tres lent
DR15 0.00 dB -17.35 dB 5:17 16-Messiaen - Vingt regards - XIV. Regard des Anges: Tres vif - Modere
DR14 0.00 dB -17.62 dB 3:23 17-Messiaen - Vingt regards - XVI. Regard des prophetes, des bergers et des Mage...
DR17 0.00 dB -22.43 dB 4:47 18-Messiaen - Vingt regards - VII. Regard de la Croix: Bien modere
DR17 -1.41 dB -26.97 dB 1:59 19-Takemitsu - Uninterrupted Rests - I. Slowly,sadly and if to converse with
DR21 -1.97 dB -28.51 dB 3:55 20-Takemitsu - Uninterrupted Rests - II. Quietly and with a cruel reverberation
DR14 -8.83 dB -32.81 dB 1:23 21-Takemitsu - Uninterrupted Rests - III. A song of love
DR13 -14.02 dB -30.41 dB 1:21 22-Cage - A Room
DR15 -5.73 dB -31.99 dB 9:13 23-Cage - In a landscape

Number of tracks: 23
Official DR value: DR15

Samplerate: 44100 Hz
Channels: 2
Bits per sample: 16
Bitrate: 382 kbps
Codec: FLAC

Alberto Rosado - Musica Ricercata: Gyorgy Ligeti, Olivier Messiaen, Toru Takemitsu, John Cage (2001)

All thanks to original releaser - GFox
Password: designol

DOWNLOAD LINKS
Buy Premium From My Links To Get Resumable Support & Max Speed & To Support Me


Links are Interchangeable - No Password - Single Extraction
Direct Download

Tags: Alberto, Rosado, Musica, Ricercata, Gyorgy, Ligeti, Olivier, Messiaen, Takemitsu

Alberto Rosado - Musica Ricercata: Gyorgy Ligeti, Olivier Messiaen, Toru Takemitsu, John Cage (2001) Download via Hotfile Rapidshare Fileserve Megaupload & FileSonic, Alberto Rosado - Musica Ricercata: Gyorgy Ligeti, Olivier Messiaen, Toru Takemitsu, John Cage (2001) free torrent downloads included crack, serial, keygen.Alberto Rosado - Musica Ricercata: Gyorgy Ligeti, Olivier Messiaen, Toru Takemitsu, John Cage (2001) Fast Download via Rapidshare Hotfile Fileserve Filesonic Megaupload, Alberto Rosado - Musica Ricercata: Gyorgy Ligeti, Olivier Messiaen, Toru Takemitsu, John Cage (2001) Torrents and Emule Download or anything related.
Leave a Comment
Your Name:
E-Mail:
Add Comments:

Enter Code: