Marilyn Monroe - The Gold Collection: Classic Performances (1997) 2CD

Download Now

Marilyn Monroe - The Gold Collection: Classic Performances (1997) 2CD

Marilyn Monroe - The Gold Collection: Classic Performances (1997) 2CD
EAC | FLAC | Tracks (Cue&Log) ~ 460 Mb (incl 5%) | Scans included | Time: 01:39:31
Genre: Vocal Pop, Vocal Jazz, Soundtracks, Show/Musical | Label: Retro | # R2CD 40-35

"Marilyn Monroe was not much of a recording artist per se, but she sang in many of her motion pictures. This European two-CD set presents dialogue and musical performances drawn directly from the soundtracks to the movie musicals Ladies of the Chorus, Gentlemen Prefer Blondes, The River of No Return, and There's No Business Like Show Business. She also sings briefly in non-musicals Niagra, Bus Stop, and The Prince and the Showgirl, plays "Chopsticks" in The Seven Year Itch, and exchanges witticisms with Groucho Marx in Love Happy; and there are a few stray non-movie song recordings. The second half of the second disc is taken up by miscellaneous recordings, not all of them musical, including a TV commercial, the presentation of several awards (she says, "Thank you"), radio sketches with Edgar Bergen and Jack Benny, and Monroe's appearances in Korea (singing "Diamonds Are a Girl's Best Friend") and at the 1962 birthday party for President Kennedy at which she sang "Happy Birthday"."



Tracklist:

CD1:

01. Ladies of the Chorus (01:29)
02. Anyone Can See I Love You (1) (01:20)
03. Anyone Can See I Love You (2) (01:29)
04. Every Baby Needs a da da Daddy (02:54)
05. Do It Again (03:13)
06. Kiss (02:03)
07. She Acts Like a Woman Should (02:46)
08. A Fine Romance (02:20)
09. Two Little Girls From Little Rock (03:04)
10. When Love Goes Wrong (03:28)
11. Bye Bye Baby (03:28)
12. Diamons Are a Girl's Best Friend (03:31)
13. You'd Be Surprised (03:03)
14. One Silver Dollar (02:02)
15. I'm Gonna File My Claim (02:42)
16. The River of No Return (02:17)
17. Down in the Meadow (02:56)
18. After You Get What You Want (03:35)

CD2:

01. Heat Wave (04:09)
02. A Man Chases A Girl (05:06)
03. Lazy (05:28)
04. There's No Business Like Show Business (02:22)
05. 'Rachmaninov' & 'Copsticks' (03:51)
06. That Old Black Magic (03:22)
07. I Found A Dream (01:04)
08. When I Fall In Love (02:57)
09. 'Love Happy' With Groucho Marx (00:17)
10. Royal Triton Tv Commercial (00:19)
11. Marilyn Best Actress With Lanren Bacall (00:30)
12. Edgar Bergen / Charlie McCarthy Show (10:10)
13. Bye Bye Baby - Tv Version (04:39)
14. Diamonds Are A Girl's Best Friends - In Korea (00:52)
15. Marilyn Meets The Press (00:58)
16. Something's Got To Give - Unreleased Film (03:32)
17. Happy Birthday Mr President (JFK) (02:01)


Exact Audio Copy V1.0 beta 3 from 29. August 2011

Отчёт EAC об извлечении, выполненном 30. августа 2015, 19:45

Marilyn Monroe / The Gold Collection (disc 1)

Дисковод: TSSTcorpCDDVDW SH-222BB Adapter: 3 ID: 0

Режим чтения : Достоверность
Использование точного потока : Да
Отключение кэша аудио : Да
Использование указателей C2 : Нет

Коррекция смещения при чтении : 6
Способность читать области Lead-in и Lead-out : Нет
Заполнение пропущенных сэмплов тишиной : Да
Удаление блоков с тишиной в начале и конце : Нет
При вычислениях CRC использовались нулевые сэмплы : Да
Интерфейс : Установленный внешний ASPI-интерфейс
Обработка зазоров
: Добавлено к предыдущему треку

Выходной формат : Пользовательский кодировщик
Выбранный битрейт : 128 kBit/s
Качество : Высокий
Добавление ID3-тега : Нет
Утилита сжатия : C:\Program Files\Exact Audio Copy\FLAC\FLAC.EXE
Дополнительные параметры : -V -8 -T "Genre=%genre%" -T "Artist=%artist%" -T "Title=%title%" -T "Album=%albumtitle%" -T "Date=%year%" -T "Tracknumber=%tracknr%" -T "Comment=%comment%" %source%

TOC извлечённого CD Трек | Старт | Длительность | Начальный сектор | Конечный сектор

1 | 0:00.00 | 1:29.10 | 0 | 6684
2 | 1:29.10 | 1:20.07 | 6685 | 12691
3 | 2:49.17 | 1:29.20 | 12692 | 19386
4 | 4:18.37 | 2:54.40 | 19387 | 32476
5 | 7:13.02 | 3:13.00 | 32477 | 46951
6 | 10:26.02 | 2:03.00 | 46952 | 56176
7 | 12:29.02 | 2:46.10 | 56177 | 68636
8 | 15:15.12 | 2:20.35 | 68637 | 79171
9 | 17:35.47 | 3:04.23 | 79172 | 92994
10 | 20:39.70 | 3:28.12 | 92995 | 108606
11 | 24:08.07 | 3:28.35 | 108607 | 124241
12 | 27:36.42 | 3:31.30 | 124242 | 140096
13 | 31:07.72 | 3:03.33 | 140097 | 153854
14 | 34:11.30 | 2:02.72 | 153855 | 163076
15 | 36:14.27 | 2:42.05 | 163077 | 175231
16 | 38:56.32 | 2:17.10 | 175232 | 185516
17 | 41:13.42 | 2:56.38 | 185517 | 198754
18 | 44:10.05 | 3:35.27 | 198755 | 214906

Трек 1 Имя файла I:\MOI_RAZDACI\Marilyn Monroe\Marilyn.Monroe_The.Gold.Collection_Classic.Performances_1997\CD-1\01 Ladies of the Chorus.wav Длина предзазора 0:00:02.00 Пиковый уровень 81.9 %
Скорость извлечения 1.3 X
Качество трека 100.0 %
CRC теста A77F5E13
CRC копии A77F5E13
Точное извлечение (достоверность 3) [6273E937] (AR v2)
Копирование... OK

Трек 2 Имя файла I:\MOI_RAZDACI\Marilyn Monroe\Marilyn.Monroe_The.Gold.Collection_Classic.Performances_1997\CD-1\02 Anyone Can See I Love You (1).wav Длина предзазора 0:00:00.06 Пиковый уровень 76.1 %
Скорость извлечения 1.3 X
Качество трека 100.0 %
CRC теста CCE05A8E
CRC копии CCE05A8E
Точное извлечение (достоверность 3) [9833F0DC] (AR v2)
Копирование... OK

Трек 3 Имя файла I:\MOI_RAZDACI\Marilyn Monroe\Marilyn.Monroe_The.Gold.Collection_Classic.Performances_1997\CD-1\03 Anyone Can See I Love You (2).wav Длина предзазора 0:00:00.07 Пиковый уровень 78.8 %
Скорость извлечения 1.1 X
Качество трека 99.8 %
CRC теста 7B898BFF
CRC копии 7B898BFF
Точное извлечение (достоверность 3) [6DC83364] (AR v2)
Копирование... OK

Трек 4 Имя файла I:\MOI_RAZDACI\Marilyn Monroe\Marilyn.Monroe_The.Gold.Collection_Classic.Performances_1997\CD-1\04 Every Baby Needs a da da Daddy.wav Длина предзазора 0:00:00.06 Пиковый уровень 88.2 %
Скорость извлечения 1.6 X
Качество трека 100.0 %
CRC теста 6AB70474
CRC копии 6AB70474
Точное извлечение (достоверность 3) [CA3DC1A4] (AR v2)
Копирование... OK

Трек 5 Имя файла I:\MOI_RAZDACI\Marilyn Monroe\Marilyn.Monroe_The.Gold.Collection_Classic.Performances_1997\CD-1\05 Do It Again.wav Длина предзазора 0:00:00.06 Пиковый уровень 100.0 %
Скорость извлечения 2.0 X
Качество трека 100.0 %
CRC теста 034E3BCB
CRC копии 034E3BCB
Точное извлечение (достоверность 3) [28E5D94E] (AR v2)
Копирование... OK

Трек 6 Имя файла I:\MOI_RAZDACI\Marilyn Monroe\Marilyn.Monroe_The.Gold.Collection_Classic.Performances_1997\CD-1\06 Kiss.wav Длина предзазора 0:00:00.07 Пиковый уровень 75.9 %
Скорость извлечения 1.9 X
Качество трека 100.0 %
CRC теста B69C899C
CRC копии B69C899C
Точное извлечение (достоверность 3) [AA0E54CB] (AR v2)
Копирование... OK

Трек 7 Имя файла I:\MOI_RAZDACI\Marilyn Monroe\Marilyn.Monroe_The.Gold.Collection_Classic.Performances_1997\CD-1\07 She Acts Like a Woman Should.wav Длина предзазора 0:00:00.06 Пиковый уровень 94.3 %
Скорость извлечения 2.1 X
Качество трека 100.0 %
CRC теста D89D63C4
CRC копии D89D63C4
Точное извлечение (достоверность 3) [0B00372B] (AR v2)
Копирование... OK

Трек 8 Имя файла I:\MOI_RAZDACI\Marilyn Monroe\Marilyn.Monroe_The.Gold.Collection_Classic.Performances_1997\CD-1\08 A Fine Romance.wav Длина предзазора 0:00:00.06 Пиковый уровень 100.0 %
Скорость извлечения 2.1 X
Качество трека 100.0 %
CRC теста 4C43F7BE
CRC копии 4C43F7BE
Точное извлечение (достоверность 3) [C5033714] (AR v2)
Копирование... OK

Трек 9 Имя файла I:\MOI_RAZDACI\Marilyn Monroe\Marilyn.Monroe_The.Gold.Collection_Classic.Performances_1997\CD-1\09 Two Little Girls From Little Rock.wav Длина предзазора 0:00:00.06 Пиковый уровень 99.2 %
Скорость извлечения 2.3 X
Качество трека 100.0 %
CRC теста B73C8FC7
CRC копии B73C8FC7
Точное извлечение (достоверность 3) [1DE775A9] (AR v2)
Копирование... OK

Трек 10 Имя файла I:\MOI_RAZDACI\Marilyn Monroe\Marilyn.Monroe_The.Gold.Collection_Classic.Performances_1997\CD-1\10 When Love Goes Wrong.wav Длина предзазора 0:00:00.06 Пиковый уровень 98.4 %
Скорость извлечения 2.0 X
Качество трека 99.9 %
CRC теста 8F5E9279
CRC копии 8F5E9279
Точное извлечение (достоверность 3) [E9355213] (AR v2)
Копирование... OK

Трек 11 Имя файла I:\MOI_RAZDACI\Marilyn Monroe\Marilyn.Monroe_The.Gold.Collection_Classic.Performances_1997\CD-1\11 Bye Bye Baby.wav Длина предзазора 0:00:00.06 Пиковый уровень 97.1 %
Скорость извлечения 2.1 X
Качество трека 99.9 %
CRC теста 87B40CC5
CRC копии 87B40CC5
Точное извлечение (достоверность 2) [64F6E865] (AR v2)
Копирование... OK

Трек 12 Имя файла I:\MOI_RAZDACI\Marilyn Monroe\Marilyn.Monroe_The.Gold.Collection_Classic.Performances_1997\CD-1\12 Diamons Are a Girl's Best Friend.wav Длина предзазора 0:00:00.06 Пиковый уровень 100.0 %
Скорость извлечения 2.8 X
Качество трека 100.0 %
CRC теста D28A9B04
CRC копии D28A9B04
Точное извлечение (достоверность 3) [239FA6E5] (AR v2)
Копирование... OK

Трек 13 Имя файла I:\MOI_RAZDACI\Marilyn Monroe\Marilyn.Monroe_The.Gold.Collection_Classic.Performances_1997\CD-1\13 You'd Be Surprised.wav Длина предзазора 0:00:00.07 Пиковый уровень 100.0 %
Скорость извлечения 2.8 X
Качество трека 100.0 %
CRC теста 278A3054
CRC копии 278A3054
Точное извлечение (достоверность 3) [F02C1C57] (AR v2)
Копирование... OK

Трек 14 Имя файла I:\MOI_RAZDACI\Marilyn Monroe\Marilyn.Monroe_The.Gold.Collection_Classic.Performances_1997\CD-1\14 One Silver Dollar.wav Длина предзазора 0:00:00.06 Пиковый уровень 87.3 %
Скорость извлечения 2.6 X
Качество трека 100.0 %
CRC теста 8A4CA46C
CRC копии 8A4CA46C
Точное извлечение (достоверность 3) [1C80EAB6] (AR v2)
Копирование... OK

Трек 15 Имя файла I:\MOI_RAZDACI\Marilyn Monroe\Marilyn.Monroe_The.Gold.Collection_Classic.Performances_1997\CD-1\15 I'm Gonna File My Claim.wav Длина предзазора 0:00:00.03 Пиковый уровень 100.0 %
Скорость извлечения 2.8 X
Качество трека 100.0 %
CRC теста 8D08929F
CRC копии 8D08929F
Точное извлечение (достоверность 3) [7163FF84] (AR v2)
Копирование... OK

Трек 16 Имя файла I:\MOI_RAZDACI\Marilyn Monroe\Marilyn.Monroe_The.Gold.Collection_Classic.Performances_1997\CD-1\16 The River of No Return.wav Длина предзазора 0:00:00.06 Пиковый уровень 89.5 %
Скорость извлечения 1.9 X
Качество трека 99.9 %
CRC теста 7266C93E
CRC копии 7266C93E
Точное извлечение (достоверность 3) [CAFB4691] (AR v2)
Копирование... OK

Трек 17 Имя файла I:\MOI_RAZDACI\Marilyn Monroe\Marilyn.Monroe_The.Gold.Collection_Classic.Performances_1997\CD-1\17 Down in the Meadow.wav Длина предзазора 0:00:00.06 Пиковый уровень 71.2 %
Скорость извлечения 3.0 X
Качество трека 100.0 %
CRC теста 85248E9D
CRC копии 85248E9D
Точное извлечение (достоверность 3) [F93298D9] (AR v2)
Копирование... OK

Трек 18 Имя файла I:\MOI_RAZDACI\Marilyn Monroe\Marilyn.Monroe_The.Gold.Collection_Classic.Performances_1997\CD-1\18 After You Get What You Want.wav Длина предзазора 0:00:00.06 Пиковый уровень 100.0 %
Скорость извлечения 3.2 X
Качество трека 100.0 %
CRC теста 03069E56
CRC копии 03069E56
Точное извлечение (достоверность 3) 8B91CD2 (AR v2)
Копирование... OK

Все треки извлечены точно

Ошибок не произошло

Конец отчёта

==== Контрольная сумма отчёта 84E405EC4588B8EBA7F82D855A190770B87A83BC8BDAD21D8CDADC2531B7B969 ====

foobar2000 1.2 / Dynamic Range Meter 1.1.1
log date: 2015-09-11 00:42:12

Analyzed: Marilyn Monroe / The Gold Collection (disc 1)

DR Peak RMS Duration Track

DR9 -1.73 dB -11.96 dB 1:29 01-Ladies of the Chorus
DR8 -2.37 dB -13.83 dB 1:20 02-Anyone Can See I Love You (1)
DR8 -2.07 dB -13.26 dB 1:29 03-Anyone Can See I Love You (2)
DR10 -1.09 dB -13.28 dB 2:55 04-Every Baby Needs a da da Daddy
DR14 0.00 dB -17.92 dB 3:13 05-Do It Again
DR10 -2.39 dB -15.53 dB 2:03 06-Kiss
DR11 -0.50 dB -15.31 dB 2:46 07-She Acts Like a Woman Should
DR11 0.00 dB -14.40 dB 2:20 08-A Fine Romance
DR11 -0.07 dB -12.93 dB 3:04 09-Two Little Girls From Little Rock
DR10 -0.14 dB -14.07 dB 3:28 10-When Love Goes Wrong
DR10 -0.25 dB -13.58 dB 3:28 11-Bye Bye Baby
DR11 0.00 dB -13.04 dB 3:31 12-Diamons Are a Girl's Best Friend
DR11 0.00 dB -14.31 dB 3:03 13-You'd Be Surprised
DR12 -1.18 dB -17.82 dB 2:03 14-One Silver Dollar
DR12 0.00 dB -15.58 dB 2:42 15-I'm Gonna File My Claim
DR12 -0.96 dB -18.97 dB 2:17 16-The River of No Return
DR11 -2.95 dB -18.94 dB 2:57 17-Down in the Meadow
DR12 0.00 dB -16.65 dB 3:35 18-After You Get What You Want

Number of tracks: 18
Official DR value: DR11

Samplerate: 44100 Hz
Channels: 2
Bits per sample: 16
Bitrate: 627 kbps
Codec: FLAC

Exact Audio Copy V1.0 beta 3 from 29. August 2011

Отчёт EAC об извлечении, выполненном 30. августа 2015, 21:05

Marilyn Monroe / The Golden Collection CD 2

Дисковод: TSSTcorpCDDVDW SH-222BB Adapter: 3 ID: 0

Режим чтения : Достоверность
Использование точного потока : Да
Отключение кэша аудио : Да
Использование указателей C2 : Нет

Коррекция смещения при чтении : 6
Способность читать области Lead-in и Lead-out : Нет
Заполнение пропущенных сэмплов тишиной : Да
Удаление блоков с тишиной в начале и конце : Нет
При вычислениях CRC использовались нулевые сэмплы : Да
Интерфейс : Установленный внешний ASPI-интерфейс
Обработка зазоров
: Добавлено к предыдущему треку

Выходной формат : Пользовательский кодировщик
Выбранный битрейт : 128 kBit/s
Качество : Высокий
Добавление ID3-тега : Нет
Утилита сжатия : C:\Program Files\Exact Audio Copy\FLAC\FLAC.EXE
Дополнительные параметры : -V -8 -T "Genre=%genre%" -T "Artist=%artist%" -T "Title=%title%" -T "Album=%albumtitle%" -T "Date=%year%" -T "Tracknumber=%tracknr%" -T "Comment=%comment%" %source%

TOC извлечённого CD Трек | Старт | Длительность | Начальный сектор | Конечный сектор

1 | 0:00.00 | 4:09.50 | 0 | 18724
2 | 4:09.50 | 5:06.72 | 18725 | 41746
3 | 9:16.47 | 5:28.50 | 41747 | 66396
4 | 14:45.22 | 2:22.48 | 66397 | 77094
5 | 17:07.70 | 3:51.30 | 77095 | 94449
6 | 20:59.25 | 3:22.27 | 94450 | 109626
7 | 24:21.52 | 1:04.68 | 109627 | 114494
8 | 25:26.45 | 2:57.70 | 114495 | 127839
9 | 28:24.40 | 0:17.60 | 127840 | 129174
10 | 28:42.25 | 0:19.22 | 129175 | 130621
11 | 29:01.47 | 0:30.55 | 130622 | 132926
12 | 29:32.27 | 10:10.40 | 132927 | 178716
13 | 39:42.67 | 4:39.15 | 178717 | 199656
14 | 44:22.07 | 0:52.45 | 199657 | 203601
15 | 45:14.52 | 0:58.03 | 203602 | 207954
16 | 46:12.55 | 3:32.02 | 207955 | 223856
17 | 49:44.57 | 2:01.30 | 223857 | 232961

Трек 1 Имя файла I:\MOI_RAZDACI\Marilyn Monroe\Marilyn.Monroe_The.Gold.Collection_Classic.Performances_1997\CD-2\01 Heat Wave.wav Длина предзазора 0:00:02.00 Пиковый уровень 93.2 %
Скорость извлечения 1.6 X
Качество трека 99.9 %
CRC теста 2AB47641
CRC копии 2AB47641
Точное извлечение (достоверность 4) [44BF9C1C] (AR v1)
Копирование... OK

Трек 2 Имя файла I:\MOI_RAZDACI\Marilyn Monroe\Marilyn.Monroe_The.Gold.Collection_Classic.Performances_1997\CD-2\02 A Man Chases A Girl.wav Длина предзазора 0:00:00.03 Пиковый уровень 99.9 %
Скорость извлечения 2.0 X
Качество трека 100.0 %
CRC теста 0CBA7295
CRC копии 0CBA7295
Точное извлечение (достоверность 4) 3D5689C (AR v1)
Копирование... OK

Трек 3 Имя файла I:\MOI_RAZDACI\Marilyn Monroe\Marilyn.Monroe_The.Gold.Collection_Classic.Performances_1997\CD-2\03 Lazy.wav Длина предзазора 0:00:00.06 Пиковый уровень 71.8 %
Скорость извлечения 2.0 X
Качество трека 99.9 %
CRC теста 9247D23E
CRC копии 9247D23E
Точное извлечение (достоверность 4) [9A433501] (AR v1)
Копирование... OK

Трек 4 Имя файла I:\MOI_RAZDACI\Marilyn Monroe\Marilyn.Monroe_The.Gold.Collection_Classic.Performances_1997\CD-2\04 There's No Business Like Show Business.wav Длина предзазора 0:00:00.06 Пиковый уровень 99.9 %
Скорость извлечения 2.1 X
Качество трека 100.0 %
CRC теста D26AB99C
CRC копии D26AB99C
Точное извлечение (достоверность 4) 8B025E2 (AR v1)
Копирование... OK

Трек 5 Имя файла I:\MOI_RAZDACI\Marilyn Monroe\Marilyn.Monroe_The.Gold.Collection_Classic.Performances_1997\CD-2\05 ''Rachmaninov'' & ''Copsticks''.wav Длина предзазора 0:00:00.06 Пиковый уровень 94.1 %
Скорость извлечения 2.0 X
Качество трека 99.9 %
CRC теста CBF2F431
CRC копии CBF2F431
Точное извлечение (достоверность 4) [CA45B5E7] (AR v1)
Копирование... OK

Трек 6 Имя файла I:\MOI_RAZDACI\Marilyn Monroe\Marilyn.Monroe_The.Gold.Collection_Classic.Performances_1997\CD-2\06 That Old Black Magic.wav Длина предзазора 0:00:00.06 Пиковый уровень 95.6 %
Скорость извлечения 2.5 X
Качество трека 100.0 %
CRC теста 537E772E
CRC копии 537E772E
Точное извлечение (достоверность 4) [FABCA450] (AR v1)
Копирование... OK

Трек 7 Имя файла I:\MOI_RAZDACI\Marilyn Monroe\Marilyn.Monroe_The.Gold.Collection_Classic.Performances_1997\CD-2\07 I Found A Dream.wav Длина предзазора 0:00:00.06 Пиковый уровень 99.9 %
Скорость извлечения 1.9 X
Качество трека 100.0 %
CRC теста 53BD0489
CRC копии 53BD0489
Точное извлечение (достоверность 4) [1D2D36DA] (AR v1)
Копирование... OK

Трек 8 Имя файла I:\MOI_RAZDACI\Marilyn Monroe\Marilyn.Monroe_The.Gold.Collection_Classic.Performances_1997\CD-2\08 When I Fall In Love.wav Длина предзазора 0:00:00.06 Пиковый уровень 100.0 %
Скорость извлечения 2.0 X
Качество трека 99.9 %
CRC теста 5910D47B
CRC копии 5910D47B
Точное извлечение (достоверность 4) [3B9ED8D4] (AR v1)
Копирование... OK

Трек 9 Имя файла I:\MOI_RAZDACI\Marilyn Monroe\Marilyn.Monroe_The.Gold.Collection_Classic.Performances_1997\CD-2\09 ''Love Happy'' With Groucho Marx.wav Длина предзазора 0:00:00.06 Пиковый уровень 94.8 %
Скорость извлечения 1.0 X
Качество трека 100.0 %
CRC теста B7EBFF40
CRC копии B7EBFF40
Точное извлечение (достоверность 4) [D92E9086] (AR v1)
Копирование... OK

Трек 10 Имя файла I:\MOI_RAZDACI\Marilyn Monroe\Marilyn.Monroe_The.Gold.Collection_Classic.Performances_1997\CD-2\10 Royal Triton Tv Commercial.wav Длина предзазора 0:00:00.07 Пиковый уровень 65.0 %
Скорость извлечения 1.0 X
Качество трека 100.0 %
CRC теста 59737D60
CRC копии 59737D60
Точное извлечение (достоверность 4) [D89F10F8] (AR v1)
Копирование... OK

Трек 11 Имя файла I:\MOI_RAZDACI\Marilyn Monroe\Marilyn.Monroe_The.Gold.Collection_Classic.Performances_1997\CD-2\11 Marilyn Best Actress With Lanren Bacall.wav Длина предзазора 0:00:00.06 Пиковый уровень 78.3 %
Скорость извлечения 1.4 X
Качество трека 100.0 %
CRC теста 20199C1D
CRC копии 20199C1D
Точное извлечение (достоверность 4) [EF885935] (AR v1)
Копирование... OK

Трек 12 Имя файла I:\MOI_RAZDACI\Marilyn Monroe\Marilyn.Monroe_The.Gold.Collection_Classic.Performances_1997\CD-2\12 Edgar Bergen , Charlie McCarthy Show.wav Длина предзазора 0:00:00.06 Пиковый уровень 67.8 %
Скорость извлечения 2.9 X
Качество трека 99.9 %
CRC теста 1A818AC1
CRC копии 1A818AC1
Точное извлечение (достоверность 4) [498DB116] (AR v1)
Копирование... OK

Трек 13 Имя файла I:\MOI_RAZDACI\Marilyn Monroe\Marilyn.Monroe_The.Gold.Collection_Classic.Performances_1997\CD-2\13 Bye Bye Baby - Tv Version.wav Длина предзазора 0:00:00.06 Пиковый уровень 91.1 %
Скорость извлечения 2.5 X
Качество трека 99.9 %
CRC теста 1C252D6E
CRC копии 1C252D6E
Точное извлечение (достоверность 4) [284BCC54] (AR v1)
Копирование... OK

Трек 14 Имя файла I:\MOI_RAZDACI\Marilyn Monroe\Marilyn.Monroe_The.Gold.Collection_Classic.Performances_1997\CD-2\14 Diamonds Are A Girl's Best Friends - In Korea.wav Длина предзазора 0:00:00.06 Пиковый уровень 83.7 %
Скорость извлечения 2.1 X
Качество трека 100.0 %
CRC теста D64F29BE
CRC копии D64F29BE
Точное извлечение (достоверность 4) [708B76AF] (AR v1)
Копирование... OK

Трек 15 Имя файла I:\MOI_RAZDACI\Marilyn Monroe\Marilyn.Monroe_The.Gold.Collection_Classic.Performances_1997\CD-2\15 Marilyn Meets The Press.wav Пиковый уровень 99.9 %
Скорость извлечения 2.3 X
Качество трека 100.0 %
CRC теста 7002BC47
CRC копии 7002BC47
Точное извлечение (достоверность 4) [29054A87] (AR v1)
Копирование... OK

Трек 16 Имя файла I:\MOI_RAZDACI\Marilyn Monroe\Marilyn.Monroe_The.Gold.Collection_Classic.Performances_1997\CD-2\16 Something's Got To Give - Unreleased Film.wav Длина предзазора 0:00:00.01 Пиковый уровень 77.7 %
Скорость извлечения 3.3 X
Качество трека 100.0 %
CRC теста 9E5CCF4D
CRC копии 9E5CCF4D
Точное извлечение (достоверность 4) [1674AAA5] (AR v1)
Копирование... OK

Трек 17 Имя файла I:\MOI_RAZDACI\Marilyn Monroe\Marilyn.Monroe_The.Gold.Collection_Classic.Performances_1997\CD-2\17 Happy Birthday Mr President (JFK).wav Длина предзазора 0:00:00.06 Пиковый уровень 99.9 %
Скорость извлечения 3.0 X
Качество трека 100.0 %
CRC теста 9C28899D
CRC копии 9C28899D
Точное извлечение (достоверность 4) [1EE01486] (AR v1)
Копирование... OK

Все треки извлечены точно

Ошибок не произошло

Конец отчёта

==== Контрольная сумма отчёта 6101360854B57DBA20D5A680F48576BC90BBCF9CBCA6A93F68DCC065B5F49321 ====

foobar2000 1.2 / Dynamic Range Meter 1.1.1
log date: 2015-09-11 00:42:35

Analyzed: Marilyn Monroe / The Golden Collection CD 2

DR Peak RMS Duration Track

DR11 -0.61 dB -14.78 dB 4:10 01-Heat Wave
DR11 0.00 dB -15.82 dB 5:07 02-A Man Chases A Girl
DR12 -2.87 dB -18.83 dB 5:29 03-Lazy
DR11 0.00 dB -12.98 dB 2:23 04-There's No Business Like Show Business
DR12 -0.52 dB -17.11 dB 3:51 05-'Rachmaninov' & 'Copsticks'
DR12 -0.39 dB -17.67 dB 3:22 06-That Old Black Magic
DR9 0.00 dB -13.26 dB 1:05 07-I Found A Dream
DR13 0.00 dB -18.54 dB 2:58 08-When I Fall In Love
DR13 -0.46 dB -17.08 dB 0:18 09-'Love Happy' With Groucho Marx
DR11 -3.74 dB -17.30 dB 0:19 10-Royal Triton Tv Commercial
DR12 -2.12 dB -16.91 dB 0:31 11-Marilyn Best Actress With Lanren Bacall
DR10 -3.37 dB -16.35 dB 10:11 12-Edgar Bergen / Charlie McCarthy Show
DR12 -0.81 dB -17.11 dB 4:39 13-Bye Bye Baby - Tv Version
DR10 -1.55 dB -13.52 dB 0:53 14-Diamonds Are A Girl's Best Friends - In Korea
DR14 0.00 dB -16.84 dB 0:58 15-Marilyn Meets The Press
DR11 -2.19 dB -15.93 dB 3:32 16-Something's Got To Give - Unreleased Film
DR11 0.00 dB -14.18 dB 2:01 17-Happy Birthday Mr President (JFK)

Number of tracks: 17
Official DR value: DR11

Samplerate: 44100 Hz
Channels: 2
Bits per sample: 16
Bitrate: 569 kbps
Codec: FLAC

Marilyn Monroe - The Gold Collection: Classic Performances (1997) 2CD

Marilyn Monroe - The Gold Collection: Classic Performances (1997) 2CD

All thanks to original releaser - stas64
Password: designol

DOWNLOAD LINKS
Buy Premium From My Links To Get Resumable Support & Max Speed & To Support Me


Links are Interchangeable - No Password - Single Extraction
Direct Download

Tags: Marilyn, Monroe, Collection, Classic, Performances

Marilyn Monroe - The Gold Collection: Classic Performances (1997) 2CD Download via Hotfile Rapidshare Fileserve Megaupload & FileSonic, Marilyn Monroe - The Gold Collection: Classic Performances (1997) 2CD free torrent downloads included crack, serial, keygen.Marilyn Monroe - The Gold Collection: Classic Performances (1997) 2CD Fast Download via Rapidshare Hotfile Fileserve Filesonic Megaupload, Marilyn Monroe - The Gold Collection: Classic Performances (1997) 2CD Torrents and Emule Download or anything related.
Leave a Comment
Your Name:
E-Mail:
Add Comments:

Enter Code: