Neal Pattman - Prison Blues (1999)

Download Now

Neal Pattman - Prison Blues (1999)

Neal Pattman - Prison Blues (1999)
EAC Rip | FLAC (Img) + Cue + Log ~ 303 Mb | MP3 CBR320 ~ 137 Mb
Scans (JPG, 300 dpi) ~ 175 Mb | RAR 5% Recovery
Blues, Harp | Cello Recordings #91003-2

"Neal Pattman (January 10, 1926 - May 4, 2005) was an American electric blues harmonica player, singer and songwriter. Sometimes billed as Big Daddy Pattman, he is best known for his self-penned tracks, "Prison Blues" and "Goin' Back To Georgia". In the latter, and most notable stages of his long career, Pattman worked with Cootie Stark, Taj Mahal, Dave Peabody, Jimmy Rip, Kenny Wayne Shepherd, Guitar Gabriel, and Lee Konitz..."

Neal Pattman - Prison Blues (1999)

Wiki | Discogs | All Music
***************

Neal Pattman - Prison Blues (1999)

Track List:

01. Momma Whoopin' Blues [02:46]
02. Catfish Blues [04:02]
03. Shortnin Bread [05:34]
04. Talkin' 'bout You Baby [05:16]
05. Market Blues [06:32]
06. Neals Testimony [02:48]
07. Prison Blues [03:28]
08. Disco Twist [02:27]
09. Going Back To Georgia [04:32]
10. Five Long Years [06:00]
11. Bottle Up And Go [04:38]
12. Oklahoma City Blues [05:17]
13. I Want Jesus To Walk With Me [04:01]

Exact Audio Copy V1.0 beta 3 from 29. August 2011

EAC extraction logfile from 5. May 2012, 15:58

Neal Pattman / Prison Blues

Used drive : HL-DT-STDVD-RAM GH22LP20 Adapter: 4 ID: 1

Read mode : Secure
Utilize accurate stream : Yes
Defeat audio cache : Yes
Make use of C2 pointers : No

Read offset correction

: 102
Overread into Lead-In and Lead-Out : No
Fill up missing offset samples with silence : Yes
Delete leading and trailing silent blocks : No
Null samples used in CRC calculations : Yes
Used interface
: Installed external ASPI interface

Used output format : User Defined Encoder
Selected bitrate : 896 kBit/s
Quality : High
Add ID3 tag : No
Command line compressor : C:\Program Files (x86)\Exact Audio Copy\WAV Pack\wavpack.exe
Additional command line options : -hlmx2 %source% %dest%

TOC of the extracted CD Track | Start | Length | Start sector | End sector
--1 | 0:00.00 | 2:45.57 | 0 | 12431 2 | 2:45.57 | 4:02.00 | 12432 | 30581 3 | 6:47.57 | 5:33.48 | 30582 | 55604 4 | 12:21.30 | 5:15.67 | 55605 | 79296 5 | 17:37.22 | 6:31.25 | 79297 | 108646 6 | 24:08.47 | 2:47.03 | 108647 | 121174 7 | 26:55.50 | 3:27.17 | 121175 | 136716 8 | 30:22.67 | 2:26.65 | 136717 | 147731 9 | 32:49.57 | 4:31.33 | 147732 | 168089
10 | 37:21.15 | 5:59.32 | 168090 | 195046
11 | 43:20.47 | 4:37.28 | 195047 | 215849
12 | 47:58.00 | 5:16.42 | 215850 | 239591
13 | 53:14.42 | 4:00.03 | 239592 | 257594

Range status and errors

Selected range Filename X:\Releases RAW\Neal Pattman - Prison Blues\Neal Pattman - Prison Blues.wav Peak level 100.0 %
Extraction speed 1.7 X
Range quality 100.0 %
Test CRC 0819C4EF
Copy CRC 0819C4EF
Copy OK

No errors occurred


AccurateRip summary

Track 1 accurately ripped (confidence 2) [A3C66ACD] (AR v1)
Track 2 accurately ripped (confidence 2) [CF9A0927] (AR v1)
Track 3 accurately ripped (confidence 2) [13753999] (AR v1)
Track 4 accurately ripped (confidence 2) [714AD401] (AR v1)
Track 5 accurately ripped (confidence 2) [02535461] (AR v1)
Track 6 accurately ripped (confidence 2) [C915DBD4] (AR v1)
Track 7 accurately ripped (confidence 2) [978B4115] (AR v1)
Track 8 accurately ripped (confidence 2) [2CF985B4] (AR v1)
Track 9 accurately ripped (confidence 2) [44608032] (AR v1)
Track 10 accurately ripped (confidence 2) [D5083A59] (AR v1)
Track 11 accurately ripped (confidence 2) [975B4E0E] (AR v1)
Track 12 accurately ripped (confidence 2) [42D8B0FB] (AR v1)
Track 13 accurately ripped (confidence 2) [EF8317F3] (AR v1)

All tracks accurately ripped

End of status report

- CUETools DB Plugin V2.1.3

[CTDB TOCID: g0h2sP2rvRzBnHZiehYdk.ofwCk-] found, Submit result: g0h2sP2rvRzBnHZiehYdk.ofwCk- has been confirmed
[4dce022e] (1/1) Accurately ripped

==== Log checksum 755360C1651A7409E09CEE6BF8E826F3A46D77FF95799446BF8767F52B464E5D ====

foobar2000 1.2.6 / Dynamic Range Meter 1.1.1
log date: 2015-09-11 02:02:31

Analyzed: Neal Pattman / Prison Blues

DR Peak RMS Duration Track

DR14 0.00 dB -18.27 dB 2:46 01-Momma Whoopin' Blues
DR17 0.00 dB -24.04 dB 4:02 02-Catfish Blues
DR18 0.00 dB -20.76 dB 5:34 03-Shortnin Bread
DR17 0.00 dB -21.34 dB 5:16 04-Talkin' 'bout You Baby
DR15 0.00 dB -18.67 dB 6:31 05-Market Blues
DR17 0.00 dB -24.75 dB 2:47 06-Neals Testimony
DR16 0.00 dB -20.57 dB 3:27 07-Prison Blues
DR14 0.00 dB -18.82 dB 2:27 08-Disco Twist
DR16 0.00 dB -20.39 dB 4:31 09-Going Back To Georgia
DR15 0.00 dB -18.75 dB 5:59 10-Five Long Years
DR15 0.00 dB -20.03 dB 4:37 11-Bottle Up And Go
DR16 0.00 dB -20.14 dB 5:17 12-Oklahoma City Blues
DR14 0.00 dB -18.72 dB 4:00 13-I Want Jesus To Walk With Me

Number of tracks: 13
Official DR value: DR16

Samplerate: 44100 Hz
Channels: 2
Bits per sample: 16
Bitrate: 705 kbps
Codec: FLAC

[CUETools log; Date: 11.09.2015 1:42:49; Version: 2.1.5]
[CTDB TOCID: g0h2sP2rvRzBnHZiehYdk.ofwCk-] found.
Track | CTDB Status
1 | (6/6) Accurately ripped
2 | (6/6) Accurately ripped
3 | (6/6) Accurately ripped
4 | (6/6) Accurately ripped
5 | (6/6) Accurately ripped
6 | (6/6) Accurately ripped
7 | (6/6) Accurately ripped
8 | (6/6) Accurately ripped
9 | (6/6) Accurately ripped
10 | (6/6) Accurately ripped
11 | (6/6) Accurately ripped
12 | (6/6) Accurately ripped
13 | (6/6) Accurately ripped
[AccurateRip ID: 001afba9-010f8dee-ae0d6a0d] found.
Track [ CRC | V2 ] Status
01 [a3c66acd|9a7a312b] (02+09/11) Accurately ripped
02 [cf9a0927|85ad875c] (02+09/11) Accurately ripped
03 [13753999|82794d56] (02+09/11) Accurately ripped
04 [714ad401|6e5a6e1a] (02+09/11) Accurately ripped
05 [02535461|afa6fec7] (02+09/11) Accurately ripped
06 [c915dbd4|0510dee5] (02+09/11) Accurately ripped
07 [978b4115|ead77c13] (02+09/11) Accurately ripped
08 [2cf985b4|987bf070] (02+09/11) Accurately ripped
09 [44608032|638ea21f] (02+09/11) Accurately ripped
10 [d5083a59|b045cb2f] (02+09/11) Accurately ripped
11 [975b4e0e|73d877a6] (02+09/11) Accurately ripped
12 [42d8b0fb|1bc370c1] (02+08/10) Accurately ripped
13 [ef8317f3|ccd5cf4c] (02+10/12) Accurately ripped

Track Peak [ CRC32 ] [W/O NULL] [ LOG ]
-- 100,0 [0819C4EF] [48CE800B] CRC32
01 99,9 [1EA93CF3] [A78E2684]
02 100,0 [45EFDD21] [A6BDF180]
03 100,0 [D18FDD27] [9564F7CC]
04 99,9 [C526BB98] [9E80803C]
05 100,0 [C419E2F2] [D45087A8]
06 99,9 [547257B3] [F9FC044D]
07 99,9 [DD307A2E] [4A691819]
08 99,9 [AB73C7F8] [D984FA29]
09 100,0 [CE5D4116] [EE8569C0]
10 99,9 [2D90D1B8] [48D93948]
11 100,0 [EBEC6BA8] [668B73EB]
12 99,9 [CD7FFAC9] [87027C58]
13 100,0 [E232846E] [9D39A330]

Neal Pattman - Prison Blues (1999)

Neal Pattman - Prison Blues (1999)



DOWNLOAD LINKS
Buy Premium From My Links To Get Resumable Support & Max Speed & To Support Me


Links are Interchangeable - No Password - Single Extraction
Direct Download

Tags: Pattman, Prison

Neal Pattman - Prison Blues (1999) Download via Hotfile Rapidshare Fileserve Megaupload & FileSonic, Neal Pattman - Prison Blues (1999) free torrent downloads included crack, serial, keygen.Neal Pattman - Prison Blues (1999) Fast Download via Rapidshare Hotfile Fileserve Filesonic Megaupload, Neal Pattman - Prison Blues (1999) Torrents and Emule Download or anything related.
Leave a Comment
Your Name:
E-Mail:
Add Comments:

Enter Code: