Saga - Full Circle (1999)

Download Now

Saga - Full Circle (1999)

Saga - Full Circle (1999)
XLD Rip | FLAC: Image+Cue+Log | 342 Mb | MP3 CBR 320 kbps | 118 Mb | Scans | 178 Mb | Time: 49:41
Genre: Progressive Rock, Neo-Prog, Arena Rock | Label: Steamhammer | Cat.в„–: SPV 085-21462 CD

""Full Circle" is a studio album by Saga, their thirteenth album of new material. This recording marks the begin of the second round of Chapters. The Band returned to their old roots starting with Full Circle in 1999. This album, just like the first two, again featured the characteristic artwork in the style of the first two albums."



Track Listing

01. Remember When (Chapter 9) (05:20)
02. The One (04:21)
03. Follow Me (05:07)
04. Uncle Albert's Eyes (Chapter 13) (05:22)
05. Home (05:06)
06. Don't Say Goodbye (05:32)
07. Time Bomb (04:05)
08. Not This Way (Chapter 10) (05:03)
09. A Night To Remember (05:44)
10. Goodbye (03:58)

Remastered by Jim Crichton

The Band

* Michael Sadler - lead vocals, keyboards
Jim Gilmour - lead keyboards, vocals
* Ian Crichton - lead guitar, acoustic
* Steve Negus - drums, percussion
* Jim Crichton - bass, keyboards, acoustic guitar

Notes

Sleeve folds out to a 9 page posters of the front sleeve, which is painted by Fabian Kraus.

Saga - Full Circle (1999)



X Lossless Decoder version 20130720 (144.0)

XLD extraction logfile from 2013-09-01 13:04:48 +0400

Saga / Full Circle (085-21462)

Used drive : HL-DT-ST DVDRAM GE20NU11 (revision CN01)
Media type : Pressed CD

Ripper mode : XLD Secure Ripper
Disable audio cache : OK for the drive with a cache less than 1375KiB
Make use of C2 pointers : NO
Read offset correction : 667
Max retry count : 20
Gap status : Analyzed, Appended

TOC of the extracted CD
Track | Start | Length | Start sector | End sector
--1 | 00:00:00 | 05:20:10 | 0 | 24009 2 | 05:20:10 | 04:21:08 | 24010 | 43592 3 | 09:41:18 | 05:07:05 | 43593 | 66622 4 | 14:48:23 | 05:22:29 | 66623 | 90801 5 | 20:10:52 | 05:06:19 | 90802 | 113770 6 | 25:16:71 | 05:32:11 | 113771 | 138681 7 | 30:49:07 | 04:05:22 | 138682 | 157078 8 | 34:54:29 | 05:03:57 | 157079 | 179860 9 | 39:58:11 | 05:44:09 | 179861 | 205669
10 | 45:42:20 | 03:58:64 | 205670 | 223583

List of alternate offset correction values# | Absolute | Relative | Confidence
1 | -12 | -679 | 12 2 | -9 | -676 | 8 3 | 0 | -667 | 3

AccurateRip Summary (DiscID: 0012fa1b-0097bc8f-760ba50a)
Track 01 : OK (v1+v2, confidence 59/82)
Track 02 : OK (v1+v2, confidence 61/84)
Track 03 : OK (v1+v2, confidence 61/84)
Track 04 : OK (v1+v2, confidence 60/82)
Track 05 : OK (v1+v2, confidence 60/83)
Track 06 : OK (v1+v2, confidence 61/84)
Track 07 : OK (v1+v2, confidence 61/84)
Track 08 : OK (v1+v2, confidence 61/82)
Track 09 : OK (v1+v2, confidence 61/82)
Track 10 : OK (v1+v2, confidence 61/84)->All tracks accurately ripped.

All Tracks
Filename : /OdW/SAGA Discography/1999 - Full Circle (085-21462)/Saga - Full Circle (085-21462).flac
Album gain : -7.04 dB
Peak : 0.989380
CRC32 hash (test run) : 61CC4321
CRC32 hash : 61CC4321
CRC32 hash (skip zero) : 72DAC762
StatisticsRead error : 0Jitter error (maybe fixed) : 0Retry sector count : 0Damaged sector count : 0

Track 01
Pre-gap length : 00:02:00 Track gain : -8.69 dB
Peak : 0.989288
CRC32 hash (test run) : 56292C60
CRC32 hash : 56292C60
CRC32 hash (skip zero) : E35D7D78
AccurateRip v1 signature : 6E0C1E0B
AccurateRip v2 signature : D43417F9->Accurately ripped (v1+v2, confidence 40+19/82)
StatisticsRead error : 0Jitter error (maybe fixed) : 0Retry sector count : 0Damaged sector count : 0

Track 02
Pre-gap length : 00:00:65 Track gain : -7.92 dB
Peak : 0.989380
CRC32 hash (test run) : ACB32557
CRC32 hash : ACB32557
CRC32 hash (skip zero) : ECECD677
AccurateRip v1 signature : C32E4C55
AccurateRip v2 signature : F7137031->Accurately ripped (v1+v2, confidence 42+19/84)
StatisticsRead error : 0Jitter error (maybe fixed) : 0Retry sector count : 0Damaged sector count : 0

Track 03
Pre-gap length : 00:01:47 Track gain : -6.53 dB
Peak : 0.989136
CRC32 hash (test run) : E9FCA48D
CRC32 hash : E9FCA48D
CRC32 hash (skip zero) : 054A7E1D
AccurateRip v1 signature : 1446D5D1
AccurateRip v2 signature : 6D4EE524->Accurately ripped (v1+v2, confidence 42+19/84)
StatisticsRead error : 0Jitter error (maybe fixed) : 0Retry sector count : 0Damaged sector count : 0

Track 04
Pre-gap length : 00:01:37 Track gain : -7.76 dB
Peak : 0.989227
CRC32 hash (test run) : 55A2A1A7
CRC32 hash : 55A2A1A7
CRC32 hash (skip zero) : D2A514EF
AccurateRip v1 signature : 8D649E7C
AccurateRip v2 signature : D85BD3D2->Accurately ripped (v1+v2, confidence 41+19/82)
StatisticsRead error : 0Jitter error (maybe fixed) : 0Retry sector count : 0Damaged sector count : 0

Track 05
Pre-gap length : 00:00:36 Track gain : -2.13 dB
Peak : 0.989227
CRC32 hash (test run) : 5ACFDD43
CRC32 hash : 5ACFDD43
CRC32 hash (skip zero) : 8803DE18
AccurateRip v1 signature : 5D7DE641
AccurateRip v2 signature : CFFFCBE0->Accurately ripped (v1+v2, confidence 41+19/83)
StatisticsRead error : 0Jitter error (maybe fixed) : 0Retry sector count : 0Damaged sector count : 0

Track 06
Pre-gap length : 00:01:63 Track gain : -4.87 dB
Peak : 0.989014
CRC32 hash (test run) : 0EDCF577
CRC32 hash : 0EDCF577
CRC32 hash (skip zero) : 2A204288
AccurateRip v1 signature : B9305AC4
AccurateRip v2 signature : 3DD8606C->Accurately ripped (v1+v2, confidence 41+20/84)
StatisticsRead error : 0Jitter error (maybe fixed) : 0Retry sector count : 0Damaged sector count : 0

Track 07
Pre-gap length : 00:01:19 Track gain : -7.36 dB
Peak : 0.989288
CRC32 hash (test run) : 7B95B66A
CRC32 hash : 7B95B66A
CRC32 hash (skip zero) : 7C39B9A9
AccurateRip v1 signature : A1D26789
AccurateRip v2 signature : 123FCA72->Accurately ripped (v1+v2, confidence 41+20/84)
StatisticsRead error : 0Jitter error (maybe fixed) : 0Retry sector count : 0Damaged sector count : 0

Track 08
Pre-gap length : 00:01:08 Track gain : -0.77 dB
Peak : 0.986511
CRC32 hash (test run) : 651BB275
CRC32 hash : 651BB275
CRC32 hash (skip zero) : C34353D5
AccurateRip v1 signature : A8E18B3D
AccurateRip v2 signature : 4C2E4C04->Accurately ripped (v1+v2, confidence 41+20/82)
StatisticsRead error : 0Jitter error (maybe fixed) : 0Retry sector count : 0Damaged sector count : 0

Track 09
Pre-gap length : 00:01:20 Track gain : -7.91 dB
Peak : 0.989349
CRC32 hash (test run) : 5CE90EA5
CRC32 hash : 5CE90EA5
CRC32 hash (skip zero) : FBAD3695
AccurateRip v1 signature : FFD277BA
AccurateRip v2 signature : 49D9A86B->Accurately ripped (v1+v2, confidence 41+20/82)
StatisticsRead error : 0Jitter error (maybe fixed) : 0Retry sector count : 0Damaged sector count : 0

Track 10
Pre-gap length : 00:02:17 Track gain : -5.03 dB
Peak : 0.902679
CRC32 hash (test run) : EEBD86CE
CRC32 hash : EEBD86CE
CRC32 hash (skip zero) : E52AA92B
AccurateRip v1 signature : F44C1A56
AccurateRip v2 signature : 6FD211A6->Accurately ripped (v1+v2, confidence 41+20/84)
StatisticsRead error : 0Jitter error (maybe fixed) : 0Retry sector count : 0Damaged sector count : 0

No errors occurred

End of status report

--BEGIN XLD SIGNATURE--
j7vj5LBC8_oEKf34s_Ed6jrJEdHqYkiLDqZAdWml8WBbrr1IsbZaUDDjFx6NdYwTkczScPQE5r_ExaWJh1XBXcsnYxPl1sRE8vcaOgm
--END XLD SIGNATURE--

Many thanks to the original uploader: Olaf der Weisse
DOWNLOAD LINKS
Buy Premium From My Links To Get Resumable Support & Max Speed & To Support Me


Links are Interchangeable - No Password - Single Extraction
Direct Download

Tags: Circle

Saga - Full Circle (1999) Download via Hotfile Rapidshare Fileserve Megaupload & FileSonic, Saga - Full Circle (1999) free torrent downloads included crack, serial, keygen.Saga - Full Circle (1999) Fast Download via Rapidshare Hotfile Fileserve Filesonic Megaupload, Saga - Full Circle (1999) Torrents and Emule Download or anything related.
Leave a Comment
Your Name:
E-Mail:
Add Comments:

Enter Code: