Ana Torroja - Conexion (2015)

Download Now

Ana Torroja - Conexion (2015)

Ana Torroja - Conexion (2015)
DVD9 | MPEG-2, NTSC 16:9 (720x480), 29.970 fps, VBR 7000 Kbps (max)
Audio #1: DD 5.1, 448 Kbps | Audio #2: DD 2.0, 192 Kbps | ~ 8,15 Gb | RAR 5% Recovery
Latin Pop | 01:11:11+00:20:54+01:15:21 | Sony Music

"Ana Torroja launched her career as the lead singer of Mecano, one of Spain's most successful pop bands, during the '80s and early '90s. Formed during the early years of the Spanish transition to democracy, Mecano sold over 25 million albums worldwide, with most of the band's popularity centered in Spain, Latin America, Italy, and France. When the band took a break in 1993, Torroja began laying the brickwork for a solo career, which took off toward the end of that decade..."

Wiki | Discogs | All Music
***************

Ana Torroja - Conexion (2015)

Track List:

01. Introducción A Un Destino / La Fuerza Del Destino
02. Hoy no me puedo levantar
03. A contratiempo
04. Disculpa
05. 50 palabras, 60 palabras o 100 (Feat. Sasha, Benny, Eric)
06. A tus pies
07. Maquillaje
08. Mujer contra mujer (Feat. Paty Cantu)
09. Infiel
10. Me cuesta tanto olvidarte (Feat. Leonel Garcia)
11. El 7 de Septiembre (Feat. Miguel Bose)
12. Quiero llorar
13. Duele el amor (Feat. Aleks Syntek)
14. Un ano mas (Feat. Carla Morrison y Ximena SArinana)
15. Corazones
16. Barco a Venus

Extras:

Algo Personal (Documental)
Concierto (Version Extendida)

General
Complete name : D:\_000\Ana Torroja - Conexion (2015) DVD9\VIDEO_TS\VTS_02_1.VOB
Format
: MPEG-PS
File size
: 1 024 MiB
Duration
: 21mn 57s
Overall bit rate mode : Variable
Overall bit rate : 6 522 Kbps

Video
ID : 224 (0xE0)
Format
: MPEG Video
Format version : Version 2
Format profile : [email protected]
Format settings, BVOP : Yes
Format settings, Matrix : Custom
Format settings, GOP : M=3, N=15
Duration
: 21mn 57s
Bit rate mode : Variable
Bit rate
: 5 752 Kbps
Maximum bit rate : 7 000 Kbps
Width
: 720 pixels
Height
: 480 pixels
Display aspect ratio : 16:9
Frame rate
: 29.970 fps
Standard
: NTSC
Color space
: YUV
Chroma subsampling

: 4:2:0
Bit depth
: 8 bits
Scan type
: Progressive
Compression mode : Lossy
Bits/(Pixel*Frame)

: 0.555
Time code of first frame : 01:00:00;00
Time code source : Group of pictures header
GOP, Open/Closed : Closed
Stream size
: 903 MiB (88%)
Color primaries : BT.601 NTSC
Transfer characteristics : BT.601
Matrix coefficients

: BT.601

Audio #1
ID : 189 (0xBD)-128 (0x80)
Format
: AC-3
Format/Info
: Audio Coding 3
Mode extension : CM (complete main)
Format settings, Endianness : Big
Muxing mode
: DVD-Video
Duration
: 21mn 56s
Bit rate mode : Constant
Bit rate
: 448 Kbps
Channel(s)
: 6 channels
Channel positions: Front: L C R, Side: L R, LFE
Sampling rate : 48.0 KHz
Bit depth
: 16 bits
Compression mode : Lossy
Stream size
: 70.3 MiB (7%)

Audio #2
ID : 189 (0xBD)-129 (0x81)
Format
: AC-3
Format/Info
: Audio Coding 3
Mode extension : CM (complete main)
Format settings, Endianness : Big
Muxing mode
: DVD-Video
Duration
: 21mn 56s
Bit rate mode : Constant
Bit rate
: 192 Kbps
Channel(s)
: 2 channels
Channel positions: Front: L R
Sampling rate : 48.0 KHz
Bit depth
: 16 bits
Compression mode : Lossy
Stream size
: 30.1 MiB (3%)

Menu

General
Complete name : D:\_000\Ana Torroja - Conexion (2015) DVD9\VIDEO_TS\VTS_02_2.VOB
Format
: MPEG-PS
File size
: 1 024 MiB
Duration
: 21mn 45s
Overall bit rate mode : Variable
Overall bit rate : 6 578 Kbps

Video
ID : 224 (0xE0)
Format
: MPEG Video
Format version : Version 2
Format profile : [email protected]
Format settings, BVOP : Yes
Format settings, Matrix : Custom
Format settings, GOP : M=3, N=15
Duration
: 21mn 45s
Bit rate mode : Variable
Bit rate
: 5 808 Kbps
Maximum bit rate : 7 000 Kbps
Width
: 720 pixels
Height
: 480 pixels
Display aspect ratio : 16:9
Frame rate
: 29.970 fps
Standard
: NTSC
Color space
: YUV
Chroma subsampling

: 4:2:0
Bit depth
: 8 bits
Scan type
: Progressive
Compression mode : Lossy
Bits/(Pixel*Frame)

: 0.561
Time code of first frame : 01:21:57;10
Time code source : Group of pictures header
GOP, Open/Closed : Closed
Stream size
: 904 MiB (88%)
Color primaries : BT.601 NTSC
Transfer characteristics : BT.601
Matrix coefficients

: BT.601

Audio #1
ID : 189 (0xBD)-128 (0x80)
Format
: AC-3
Format/Info
: Audio Coding 3
Mode extension : CM (complete main)
Format settings, Endianness : Big
Muxing mode
: DVD-Video
Duration
: 21mn 45s
Bit rate mode : Constant
Bit rate
: 448 Kbps
Channel(s)
: 6 channels
Channel positions: Front: L C R, Side: L R, LFE
Sampling rate : 48.0 KHz
Bit depth
: 16 bits
Compression mode : Lossy
Delay relative to video : -647ms
Stream size
: 69.7 MiB (7%)

Audio #2
ID : 189 (0xBD)-129 (0x81)
Format
: AC-3
Format/Info
: Audio Coding 3
Mode extension : CM (complete main)
Format settings, Endianness : Big
Muxing mode
: DVD-Video
Duration
: 21mn 45s
Bit rate mode : Constant
Bit rate
: 192 Kbps
Channel(s)
: 2 channels
Channel positions: Front: L R
Sampling rate : 48.0 KHz
Bit depth
: 16 bits
Compression mode : Lossy
Delay relative to video : -583ms
Stream size
: 29.9 MiB (3%)

Menu

General
Complete name : D:\_000\Ana Torroja - Conexion (2015) DVD9\VIDEO_TS\VTS_02_3.VOB
Format
: MPEG-PS
File size
: 1 024 MiB
Duration
: 21mn 40s
Overall bit rate mode : Variable
Overall bit rate : 6 606 Kbps

Video
ID : 224 (0xE0)
Format
: MPEG Video
Format version : Version 2
Format profile : [email protected]
Format settings, BVOP : Yes
Format settings, Matrix : Custom
Format settings, GOP : M=3, N=15
Duration
: 21mn 39s
Bit rate mode : Variable
Bit rate
: 5 835 Kbps
Maximum bit rate : 7 000 Kbps
Width
: 720 pixels
Height
: 480 pixels
Display aspect ratio : 16:9
Frame rate
: 29.970 fps
Standard
: NTSC
Color space
: YUV
Chroma subsampling

: 4:2:0
Bit depth
: 8 bits
Scan type
: Progressive
Compression mode : Lossy
Bits/(Pixel*Frame)

: 0.563
Time code of first frame : 01:43:43;03
Time code source : Group of pictures header
GOP, Open/Closed : Closed
Stream size
: 904 MiB (88%)
Color primaries : BT.601 NTSC
Transfer characteristics : BT.601
Matrix coefficients

: BT.601

Audio #1
ID : 189 (0xBD)-128 (0x80)
Format
: AC-3
Format/Info
: Audio Coding 3
Mode extension : CM (complete main)
Format settings, Endianness : Big
Muxing mode
: DVD-Video
Duration
: 21mn 40s
Bit rate mode : Constant
Bit rate
: 448 Kbps
Channel(s)
: 6 channels
Channel positions: Front: L C R, Side: L R, LFE
Sampling rate : 48.0 KHz
Bit depth
: 16 bits
Compression mode : Lossy
Delay relative to video : -657ms
Stream size
: 69.4 MiB (7%)

Audio #2
ID : 189 (0xBD)-129 (0x81)
Format
: AC-3
Format/Info
: Audio Coding 3
Mode extension : CM (complete main)
Format settings, Endianness : Big
Muxing mode
: DVD-Video
Duration
: 21mn 40s
Bit rate mode : Constant
Bit rate
: 192 Kbps
Channel(s)
: 2 channels
Channel positions: Front: L R
Sampling rate : 48.0 KHz
Bit depth
: 16 bits
Compression mode : Lossy
Delay relative to video : -529ms
Stream size
: 29.8 MiB (3%)

Menu

General
Complete name : D:\_000\Ana Torroja - Conexion (2015) DVD9\VIDEO_TS\VTS_02_4.VOB
Format
: MPEG-PS
File size
: 275 MiB
Duration
: 5mn 52s
Overall bit rate mode : Variable
Overall bit rate : 6 544 Kbps

Video
ID : 224 (0xE0)
Format
: MPEG Video
Format version : Version 2
Format profile : [email protected]
Format settings, BVOP : Yes
Format settings, Matrix : Custom
Format settings, GOP : M=3, N=15
Duration
: 5mn 51s
Bit rate mode : Variable
Bit rate
: 5 774 Kbps
Maximum bit rate : 7 000 Kbps
Width
: 720 pixels
Height
: 480 pixels
Display aspect ratio : 16:9
Frame rate
: 29.970 fps
Standard
: NTSC
Color space
: YUV
Chroma subsampling

: 4:2:0
Bit depth
: 8 bits
Scan type
: Progressive
Compression mode : Lossy
Bits/(Pixel*Frame)

: 0.557
Time code of first frame : 02:05:23;11
Time code source : Group of pictures header
GOP, Open/Closed : Closed
Stream size
: 242 MiB (88%)
Color primaries : BT.601 NTSC
Transfer characteristics : BT.601
Matrix coefficients

: BT.601

Audio #1
ID : 189 (0xBD)-128 (0x80)
Format
: AC-3
Format/Info
: Audio Coding 3
Mode extension : CM (complete main)
Format settings, Endianness : Big
Muxing mode
: DVD-Video
Duration
: 5mn 52s
Bit rate mode : Constant
Bit rate
: 448 Kbps
Channel(s)
: 6 channels
Channel positions: Front: L C R, Side: L R, LFE
Sampling rate : 48.0 KHz
Bit depth
: 16 bits
Compression mode : Lossy
Delay relative to video : -601ms
Stream size
: 18.8 MiB (7%)

Audio #2
ID : 189 (0xBD)-129 (0x81)
Format
: AC-3
Format/Info
: Audio Coding 3
Mode extension : CM (complete main)
Format settings, Endianness : Big
Muxing mode
: DVD-Video
Duration
: 5mn 52s
Bit rate mode : Constant
Bit rate
: 192 Kbps
Channel(s)
: 2 channels
Channel positions: Front: L R
Sampling rate : 48.0 KHz
Bit depth
: 16 bits
Compression mode : Lossy
Delay relative to video : -537ms
Stream size
: 8.06 MiB (3%)

General
Complete name : D:\_000\Ana Torroja - Conexion (2015) DVD9\VIDEO_TS\VTS_03_1.VOB
Format
: MPEG-PS
File size
: 1 024 MiB
Duration
: 22mn 24s
Overall bit rate mode : Variable
Overall bit rate : 6 388 Kbps

Video
ID : 224 (0xE0)
Format
: MPEG Video
Format version : Version 2
Format profile : [email protected]
Format settings, BVOP : Yes
Format settings, Matrix : Custom
Format settings, GOP : M=3, N=15
Duration
: 22mn 24s
Bit rate mode : Variable
Bit rate
: 5 621 Kbps
Maximum bit rate : 7 100 Kbps
Width
: 720 pixels
Height
: 480 pixels
Display aspect ratio : 16:9
Frame rate
: 29.970 fps
Standard
: NTSC
Color space
: YUV
Chroma subsampling

: 4:2:0
Bit depth
: 8 bits
Scan type
: Progressive
Compression mode : Lossy
Bits/(Pixel*Frame)

: 0.543
Time code of first frame : 01:00:00;00
Time code source : Group of pictures header
GOP, Open/Closed : Closed
Stream size
: 901 MiB (88%)
Color primaries : BT.601 NTSC
Transfer characteristics : BT.601
Matrix coefficients

: BT.601

Audio #1
ID : 189 (0xBD)-128 (0x80)
Format
: AC-3
Format/Info
: Audio Coding 3
Mode extension : CM (complete main)
Format settings, Endianness : Big
Muxing mode
: DVD-Video
Duration
: 22mn 24s
Bit rate mode : Constant
Bit rate
: 448 Kbps
Channel(s)
: 6 channels
Channel positions: Front: L C R, Side: L R, LFE
Sampling rate : 48.0 KHz
Bit depth
: 16 bits
Compression mode : Lossy
Stream size
: 71.8 MiB (7%)

Audio #2
ID : 189 (0xBD)-129 (0x81)
Format
: AC-3
Format/Info
: Audio Coding 3
Mode extension : CM (complete main)
Format settings, Endianness : Big
Muxing mode
: DVD-Video
Duration
: 22mn 24s
Bit rate mode : Constant
Bit rate
: 192 Kbps
Channel(s)
: 2 channels
Channel positions: Front: L R
Sampling rate : 48.0 KHz
Bit depth
: 16 bits
Compression mode : Lossy
Stream size
: 30.8 MiB (3%)

Menu

General
Complete name : D:\_000\Ana Torroja - Conexion (2015) DVD9\VIDEO_TS\VTS_03_2.VOB
Format
: MPEG-PS
File size
: 1 024 MiB
Duration
: 21mn 50s
Overall bit rate mode : Variable
Overall bit rate : 6 554 Kbps

Video
ID : 224 (0xE0)
Format
: MPEG Video
Format version : Version 2
Format profile : [email protected]
Format settings, BVOP : Yes
Format settings, Matrix : Custom
Format settings, GOP : M=3, N=15
Duration
: 21mn 50s
Bit rate mode : Variable
Bit rate
: 5 784 Kbps
Maximum bit rate : 7 100 Kbps
Width
: 720 pixels
Height
: 480 pixels
Display aspect ratio : 16:9
Frame rate
: 29.970 fps
Standard
: NTSC
Color space
: YUV
Chroma subsampling

: 4:2:0
Bit depth
: 8 bits
Scan type
: Progressive
Compression mode : Lossy
Bits/(Pixel*Frame)

: 0.558
Time code of first frame : 01:22:25;03
Time code source : Group of pictures header
GOP, Open/Closed : Closed
Stream size
: 903 MiB (88%)
Color primaries : BT.601 NTSC
Transfer characteristics : BT.601
Matrix coefficients

: BT.601

Audio #1
ID : 189 (0xBD)-128 (0x80)
Format
: AC-3
Format/Info
: Audio Coding 3
Mode extension : CM (complete main)
Format settings, Endianness : Big
Muxing mode
: DVD-Video
Duration
: 21mn 50s
Bit rate mode : Constant
Bit rate
: 448 Kbps
Channel(s)
: 6 channels
Channel positions: Front: L C R, Side: L R, LFE
Sampling rate : 48.0 KHz
Bit depth
: 16 bits
Compression mode : Lossy
Delay relative to video : -631ms
Stream size
: 70.0 MiB (7%)

Audio #2
ID : 189 (0xBD)-129 (0x81)
Format
: AC-3
Format/Info
: Audio Coding 3
Mode extension : CM (complete main)
Format settings, Endianness : Big
Muxing mode
: DVD-Video
Duration
: 21mn 50s
Bit rate mode : Constant
Bit rate
: 192 Kbps
Channel(s)
: 2 channels
Channel positions: Front: L R
Sampling rate : 48.0 KHz
Bit depth
: 16 bits
Compression mode : Lossy
Delay relative to video : -599ms
Stream size
: 30.0 MiB (3%)

Menu

General
Complete name : D:\_000\Ana Torroja - Conexion (2015) DVD9\VIDEO_TS\VTS_03_3.VOB
Format
: MPEG-PS
File size
: 1 024 MiB
Duration
: 21mn 49s
Overall bit rate mode : Variable
Overall bit rate : 6 560 Kbps

Video
ID : 224 (0xE0)
Format
: MPEG Video
Format version : Version 2
Format profile : [email protected]
Format settings, BVOP : Yes
Format settings, Matrix : Custom
Format settings, GOP : M=3, N=15
Duration
: 21mn 49s
Bit rate mode : Variable
Bit rate
: 5 789 Kbps
Maximum bit rate : 7 100 Kbps
Width
: 720 pixels
Height
: 480 pixels
Display aspect ratio : 16:9
Frame rate
: 29.970 fps
Standard
: NTSC
Color space
: YUV
Chroma subsampling

: 4:2:0
Bit depth
: 8 bits
Scan type
: Progressive
Compression mode : Lossy
Bits/(Pixel*Frame)

: 0.559
Time code of first frame : 01:44:15;23
Time code source : Group of pictures header
GOP, Open/Closed : Closed
Stream size
: 903 MiB (88%)
Color primaries : BT.601 NTSC
Transfer characteristics : BT.601
Matrix coefficients

: BT.601

Audio #1
ID : 189 (0xBD)-128 (0x80)
Format
: AC-3
Format/Info
: Audio Coding 3
Mode extension : CM (complete main)
Format settings, Endianness : Big
Muxing mode
: DVD-Video
Duration
: 21mn 49s
Bit rate mode : Constant
Bit rate
: 448 Kbps
Channel(s)
: 6 channels
Channel positions: Front: L C R, Side: L R, LFE
Sampling rate : 48.0 KHz
Bit depth
: 16 bits
Compression mode : Lossy
Delay relative to video : -617ms
Stream size
: 69.9 MiB (7%)

Audio #2
ID : 189 (0xBD)-129 (0x81)
Format
: AC-3
Format/Info
: Audio Coding 3
Mode extension : CM (complete main)
Format settings, Endianness : Big
Muxing mode
: DVD-Video
Duration
: 21mn 49s
Bit rate mode : Constant
Bit rate
: 192 Kbps
Channel(s)
: 2 channels
Channel positions: Front: L R
Sampling rate : 48.0 KHz
Bit depth
: 16 bits
Compression mode : Lossy
Delay relative to video : -585ms
Stream size
: 30.0 MiB (3%)

Menu

General
Complete name : D:\_000\Ana Torroja - Conexion (2015) DVD9\VIDEO_TS\VTS_03_4.VOB
Format
: MPEG-PS
File size
: 440 MiB
Duration
: 9mn 20s
Overall bit rate mode : Variable
Overall bit rate : 6 584 Kbps

Video
ID : 224 (0xE0)
Format
: MPEG Video
Format version : Version 2
Format profile : [email protected]
Format settings, BVOP : Yes
Format settings, Matrix : Custom
Format settings, GOP : M=3, N=15
Duration
: 9mn 20s
Bit rate mode : Variable
Bit rate
: 5 813 Kbps
Maximum bit rate : 7 100 Kbps
Width
: 720 pixels
Height
: 480 pixels
Display aspect ratio : 16:9
Frame rate
: 29.970 fps
Standard
: NTSC
Color space
: YUV
Chroma subsampling

: 4:2:0
Bit depth
: 8 bits
Scan type
: Progressive
Compression mode : Lossy
Bits/(Pixel*Frame)

: 0.561
Time code of first frame : 02:06:05;10
Time code source : Group of pictures header
GOP, Open/Closed : Closed
Stream size
: 388 MiB (88%)
Color primaries : BT.601 NTSC
Transfer characteristics : BT.601
Matrix coefficients

: BT.601

Audio #1
ID : 189 (0xBD)-128 (0x80)
Format
: AC-3
Format/Info
: Audio Coding 3
Mode extension : CM (complete main)
Format settings, Endianness : Big
Muxing mode
: DVD-Video
Duration
: 9mn 20s
Bit rate mode : Constant
Bit rate
: 448 Kbps
Channel(s)
: 6 channels
Channel positions: Front: L C R, Side: L R, LFE
Sampling rate : 48.0 KHz
Bit depth
: 16 bits
Compression mode : Lossy
Delay relative to video : -687ms
Stream size
: 30.0 MiB (7%)

Audio #2
ID : 189 (0xBD)-129 (0x81)
Format
: AC-3
Format/Info
: Audio Coding 3
Mode extension : CM (complete main)
Format settings, Endianness : Big
Muxing mode
: DVD-Video
Duration
: 9mn 20s
Bit rate mode : Constant
Bit rate
: 192 Kbps
Channel(s)
: 2 channels
Channel positions: Front: L R
Sampling rate : 48.0 KHz
Bit depth
: 16 bits
Compression mode : Lossy
Delay relative to video : -655ms
Stream size
: 12.8 MiB (3%)

General
Complete name : D:\_000\Ana Torroja - Conexion (2015) DVD9\VIDEO_TS\VTS_05_1.VOB
Format
: MPEG-PS
File size
: 895 MiB
Duration
: 20mn 55s
Overall bit rate mode : Variable
Overall bit rate : 5 984 Kbps

Video
ID : 224 (0xE0)
Format
: MPEG Video
Format version : Version 2
Format profile : [email protected]
Format settings, BVOP : Yes
Format settings, Matrix : Custom
Format settings, GOP : M=3, N=12
Duration
: 20mn 55s
Bit rate mode : Variable
Bit rate
: 5 481 Kbps
Maximum bit rate : 7 100 Kbps
Width
: 720 pixels
Height
: 480 pixels
Display aspect ratio : 16:9
Frame rate
: 23.976 fps
Standard
: NTSC
Color space
: YUV
Chroma subsampling

: 4:2:0
Bit depth
: 8 bits
Scan type
: Progressive
Scan order
: 2:3 Pulldown
Compression mode : Lossy
Bits/(Pixel*Frame)

: 0.661
Time code of first frame : 01:00:00:00
Time code source : Group of pictures header
GOP, Open/Closed : Closed
Stream size
: 820 MiB (92%)
Color primaries : BT.601 NTSC
Transfer characteristics : BT.601
Matrix coefficients

: BT.601

Audio #1
ID : 189 (0xBD)-128 (0x80)
Format
: AC-3
Format/Info
: Audio Coding 3
Mode extension : CM (complete main)
Format settings, Endianness : Big
Muxing mode
: DVD-Video
Duration
: 20mn 55s
Bit rate mode : Constant
Bit rate
: 192 Kbps
Channel(s)
: 2 channels
Channel positions: Front: L R
Sampling rate : 48.0 KHz
Bit depth
: 16 bits
Compression mode : Lossy
Stream size
: 28.7 MiB (3%)

Audio #2
ID : 189 (0xBD)-129 (0x81)
Format
: AC-3
Format/Info
: Audio Coding 3
Mode extension : CM (complete main)
Format settings, Endianness : Big
Muxing mode
: DVD-Video
Duration
: 20mn 55s
Bit rate mode : Constant
Bit rate
: 192 Kbps
Channel(s)
: 2 channels
Channel positions: Front: L R
Sampling rate : 48.0 KHz
Bit depth
: 16 bits
Compression mode : Lossy
Stream size
: 28.7 MiB (3%)

Menu

Ana Torroja - Conexion (2015)

Ana Torroja - Conexion (2015)

Ana Torroja - Conexion (2015)

Ana Torroja - Conexion (2015)

Ana Torroja - Conexion (2015)

Ana Torroja - Conexion (2015)

Ana Torroja - Conexion (2015)

Ana Torroja - Conexion (2015)

Ana Torroja - Conexion (2015)

Ana Torroja - Conexion (2015)

Ana Torroja - Conexion (2015)



DOWNLOAD LINKS
Buy Premium From My Links To Get Resumable Support & Max Speed & To Support Me

Rapidgator.net:
http://rapidgator.net/file/32295eb56ac4190c7881ce9c4a27eea2/k7gdt.A.T.C.2015.part01.rar.html
http://rapidgator.net/file/87d38474c69737c94a0bc1354bd42fbb/k7gdt.A.T.C.2015.part02.rar.html
http://rapidgator.net/file/3d0f933fd7fd4be149c763f48475d02a/k7gdt.A.T.C.2015.part03.rar.html
http://rapidgator.net/file/852f1cc42f8bcf756fed3f2d129f9156/k7gdt.A.T.C.2015.part04.rar.html
http://rapidgator.net/file/c9d59c83ddeadeb6a07306c22a1ad07e/k7gdt.A.T.C.2015.part05.rar.html
http://rapidgator.net/file/c0543b0955de674cf39c5537d921770b/k7gdt.A.T.C.2015.part06.rar.html
http://rapidgator.net/file/e0a9fbf60d399bcc0c85c86500688fff/k7gdt.A.T.C.2015.part07.rar.html
http://rapidgator.net/file/d465a7ec69fafddd7b6f1821ba331aca/k7gdt.A.T.C.2015.part08.rar.html
http://rapidgator.net/file/56d79942880fe7d348c7e59e32d8fbde/k7gdt.A.T.C.2015.part09.rar.html
http://rapidgator.net/file/d92bdc85652c47b801f1d249c43f8b85/k7gdt.A.T.C.2015.part10.rar.html
http://rapidgator.net/file/0ca9a3c361248efdc50b5dacc4fd5ed5/k7gdt.A.T.C.2015.part11.rar.html
http://rapidgator.net/file/db72e5ed52f305a14db2c99b8477e469/k7gdt.A.T.C.2015.part12.rar.html
http://rapidgator.net/file/c83f9745320f86363263ef2c2a905766/k7gdt.A.T.C.2015.part13.rar.html
http://rapidgator.net/file/ad6655b281154ca738246a1aa0140c4d/k7gdt.A.T.C.2015.part14.rar.html
http://rapidgator.net/file/e6515656a071e94c9835e8cd556de716/k7gdt.A.T.C.2015.part15.rar.html
http://rapidgator.net/file/3f6a3ab4c0ff2cbcb5b2ab14e9fb3702/k7gdt.A.T.C.2015.part16.rar.html
http://rapidgator.net/file/675f945d52b72bc93d48343895d2ddf7/k7gdt.A.T.C.2015.part17.rar.html

Uploaded.net:
http://uploaded.net/file/v1107sqy/k7gdt.A.T.C.2015.part01.rar
http://uploaded.net/file/5atlqoxd/k7gdt.A.T.C.2015.part02.rar
http://uploaded.net/file/j2wqvwmb/k7gdt.A.T.C.2015.part03.rar
http://uploaded.net/file/1ssu9egy/k7gdt.A.T.C.2015.part04.rar
http://uploaded.net/file/6c73yo1p/k7gdt.A.T.C.2015.part05.rar
http://uploaded.net/file/kg8icgso/k7gdt.A.T.C.2015.part06.rar
http://uploaded.net/file/j7v1uslo/k7gdt.A.T.C.2015.part07.rar
http://uploaded.net/file/ko52pqv9/k7gdt.A.T.C.2015.part08.rar
http://uploaded.net/file/o6j8tw75/k7gdt.A.T.C.2015.part09.rar
http://uploaded.net/file/4b0ekx4k/k7gdt.A.T.C.2015.part10.rar
http://uploaded.net/file/52dybqvw/k7gdt.A.T.C.2015.part11.rar
http://uploaded.net/file/7umc69sp/k7gdt.A.T.C.2015.part12.rar
http://uploaded.net/file/ezebs5xl/k7gdt.A.T.C.2015.part13.rar
http://uploaded.net/file/fr5n5an7/k7gdt.A.T.C.2015.part14.rar
http://uploaded.net/file/ngnjlzsy/k7gdt.A.T.C.2015.part15.rar
http://uploaded.net/file/g8v5lwyg/k7gdt.A.T.C.2015.part16.rar
http://uploaded.net/file/1mpjx2pf/k7gdt.A.T.C.2015.part17.rar

nitroflare_com:
http://nitroflare.com/view/537CCE31CFB7E21/k7gdt.A.T.C.2015.part01.rar
http://nitroflare.com/view/788091FCA9729FA/k7gdt.A.T.C.2015.part02.rar
http://nitroflare.com/view/70A03D0925058DB/k7gdt.A.T.C.2015.part03.rar
http://nitroflare.com/view/9D45B874ABE5649/k7gdt.A.T.C.2015.part04.rar
http://nitroflare.com/view/3483A7DC9B647CC/k7gdt.A.T.C.2015.part05.rar
http://nitroflare.com/view/2EB4B624CE466F7/k7gdt.A.T.C.2015.part06.rar
http://nitroflare.com/view/0856B044F5C763D/k7gdt.A.T.C.2015.part07.rar
http://nitroflare.com/view/74F555143E6704C/k7gdt.A.T.C.2015.part08.rar
http://nitroflare.com/view/892C3DD2A78BC12/k7gdt.A.T.C.2015.part09.rar
http://nitroflare.com/view/0688826643003C2/k7gdt.A.T.C.2015.part10.rar
http://nitroflare.com/view/FC907A8ECA636DB/k7gdt.A.T.C.2015.part11.rar
http://nitroflare.com/view/6635F97F12CB0A3/k7gdt.A.T.C.2015.part12.rar
http://nitroflare.com/view/DDB31B71D80C3CE/k7gdt.A.T.C.2015.part13.rar
http://nitroflare.com/view/5BF444C19B9F1B7/k7gdt.A.T.C.2015.part14.rar
http://nitroflare.com/view/BC43963B18B70A1/k7gdt.A.T.C.2015.part15.rar
http://nitroflare.com/view/30E8C06FEFC6998/k7gdt.A.T.C.2015.part16.rar
http://nitroflare.com/view/E5CB647447D53E6/k7gdt.A.T.C.2015.part17.rar

Uploadable.ch:
http://www.uploadable.ch/file/xzZnaTKMb4EV/k7gdt.A.T.C.2015.part01.rar
http://www.uploadable.ch/file/N9xxQBm6CkqU/k7gdt.A.T.C.2015.part02.rar
http://www.uploadable.ch/file/xSESe5jWcgMC/k7gdt.A.T.C.2015.part03.rar
http://www.uploadable.ch/file/Y5K4USWpduqV/k7gdt.A.T.C.2015.part04.rar
http://www.uploadable.ch/file/Vpu76nVKWXPa/k7gdt.A.T.C.2015.part05.rar
http://www.uploadable.ch/file/5DW8kmqfw2vK/k7gdt.A.T.C.2015.part06.rar
http://www.uploadable.ch/file/eRcJKa4JygrJ/k7gdt.A.T.C.2015.part07.rar
http://www.uploadable.ch/file/wDpAKUAuZPkJ/k7gdt.A.T.C.2015.part08.rar
http://www.uploadable.ch/file/KZFteJQANHbj/k7gdt.A.T.C.2015.part09.rar
http://www.uploadable.ch/file/p3NDjqRFy2gS/k7gdt.A.T.C.2015.part10.rar
http://www.uploadable.ch/file/eMr8ughjxChB/k7gdt.A.T.C.2015.part11.rar
http://www.uploadable.ch/file/uYTh9YSAsKD2/k7gdt.A.T.C.2015.part12.rar
http://www.uploadable.ch/file/KYeweE568hJM/k7gdt.A.T.C.2015.part13.rar
http://www.uploadable.ch/file/xtqMHVTh4zQY/k7gdt.A.T.C.2015.part14.rar
http://www.uploadable.ch/file/NhutkT3MZB4d/k7gdt.A.T.C.2015.part15.rar
http://www.uploadable.ch/file/jGnwRHbR6YD7/k7gdt.A.T.C.2015.part16.rar
http://www.uploadable.ch/file/nt35TS563zP8/k7gdt.A.T.C.2015.part17.rar

Links are Interchangeable - No Password - Single Extraction
Direct Download

Tags: Torroja, Conexion

Ana Torroja - Conexion (2015) Download via Hotfile Rapidshare Fileserve Megaupload & FileSonic, Ana Torroja - Conexion (2015) free torrent downloads included crack, serial, keygen.Ana Torroja - Conexion (2015) Fast Download via Rapidshare Hotfile Fileserve Filesonic Megaupload, Ana Torroja - Conexion (2015) Torrents and Emule Download or anything related.
Leave a Comment
Your Name:
E-Mail:
Add Comments:

Enter Code: