Teengenerate - Get More Action! (2013)

Download Now


Teengenerate - Get More Action! (2013)
Teengenerate - Get More Action: The Lost Egg Studio Recordings! (2013)
FLAC+CUE+LOG or MP3 CBR 320 | Complete Scanwork | 410 or 122 MB

The long lost May 1994 Egg Studio album sessions, from legendary Tokyo Garage-Punk band, finally available after disappering for years - completely and radically remixed... Features new booklet with many photos & linear note from Eric Davidson (New Bomb Turks). Also, this CD version includes five cover tracks from the "Five Covers EP".
Tracklist:

01. Mess Me Up
02. Teenage Freak
03. Dressed In Black
04. Fake Fake Fake
05. Stink
06. Plastic Man
07. Right Now
08. Untitled
09. Radio 55
10. Front Page
11. Let's Get Hurt
12. She's So Fine
13. Don't Leave Me
14. I'm Beat
15. I Don't Want To Follow You
16. Hey Baby
17. Grown Up Wrong
18. Boy From Nowhere [DMZ cover]
19. She's Alright [The Real Kids cover]
20. Kicked Out Of The Webelos [The Queers cover]
21. Six And Change [Pagans cover]
22. I Need Your Love Tonight [Elvis Presley cover]

Exact Audio Copy V1.0 beta 6 from 9. April 2015

EAC extraction logfile from 17. June 2015, 9:25

Teengenerate / Get More Action! (The Lost Egg Studio Recordings!!)

Used drive : ASUS DRW-24B1ST Adapter: 1 ID: 0

Read mode : Secure
Utilize accurate stream : Yes
Defeat audio cache : Yes
Make use of C2 pointers : No

Read offset correction

: 6
Overread into Lead-In and Lead-Out : No
Fill up missing offset samples with silence : Yes
Delete leading and trailing silent blocks : No
Null samples used in CRC calculations : Yes
Used interface
: Native Win32 interface for Win NT & 2000

Used output format : Internal WAV Routines
Sample format : 44.100 Hz; 16 Bit; Stereo

TOC of the extracted CD Track | Start | Length | Start sector | End sector
--1 | 0:00.00 | 1:49.08 | 0 | 8182 2 | 1:49.08 | 1:42.67 | 8183 | 15899 3 | 3:32.00 | 2:42.20 | 15900 | 28069 4 | 6:14.20 | 2:01.42 | 28070 | 37186 5 | 8:15.62 | 1:36.02 | 37187 | 44388 6 | 9:51.64 | 2:33.17 | 44389 | 55880 7 | 12:25.06 | 2:13.54 | 55881 | 65909 8 | 14:38.60 | 2:52.34 | 65910 | 78843 9 | 17:31.19 | 1:56.55 | 78844 | 87598
10 | 19:27.74 | 1:26.65 | 87599 | 94113
11 | 20:54.64 | 2:41.24 | 94114 | 106212
12 | 23:36.13 | 1:34.10 | 106213 | 113272
13 | 25:10.23 | 2:12.31 | 113273 | 123203
14 | 27:22.54 | 1:33.00 | 123204 | 130178
15 | 28:55.54 | 2:08.04 | 130179 | 139782
16 | 31:03.58 | 1:22.47 | 139783 | 145979
17 | 32:26.30 | 2:45.18 | 145980 | 158372
18 | 35:11.48 | 1:30.30 | 158373 | 165152
19 | 36:42.03 | 1:29.09 | 165153 | 171836
20 | 38:11.12 | 1:12.43 | 171837 | 177279
21 | 39:23.55 | 2:04.03 | 177280 | 186582
22 | 41:27.58 | 1:23.43 | 186583 | 192850

Range status and errors

Selected range Filename F:\_AvaxHome__Rehabilly\Teengenerate - Get More Action! (2013)\Teengenerate - Get More Action (CR-104).wav Peak level 100.0 %
Extraction speed 7.8 X
Range quality 99.9 %
Test CRC C9D430DC
Copy CRC C9D430DC
Copy OK

No errors occurred


AccurateRip summary

Track 1 accurately ripped (confidence 1) [AB0A1363] (AR v1)
Track 2 accurately ripped (confidence 1) [5A7DFD5D] (AR v1)
Track 3 accurately ripped (confidence 1) [2FFC74B9] (AR v1)
Track 4 accurately ripped (confidence 1) [3474ECD2] (AR v1)
Track 5 accurately ripped (confidence 1) [FCFD8FF6] (AR v1)
Track 6 accurately ripped (confidence 1) 928505D (AR v1)
Track 7 accurately ripped (confidence 1) [4489A262] (AR v1)
Track 8 accurately ripped (confidence 1) [40B9AE65] (AR v1)
Track 9 accurately ripped (confidence 1) [ED9CBB39] (AR v1)
Track 10 accurately ripped (confidence 1) [005BFF7C] (AR v1)
Track 11 accurately ripped (confidence 1) [D31BA8A8] (AR v1)
Track 12 accurately ripped (confidence 1) [60F7F179] (AR v1)
Track 13 accurately ripped (confidence 1) [A2C921AD] (AR v1)
Track 14 accurately ripped (confidence 1) [0742DB5D] (AR v1)
Track 15 accurately ripped (confidence 1) [CDFBDFFB] (AR v1)
Track 16 accurately ripped (confidence 1) 123E20D (AR v1)
Track 17 accurately ripped (confidence 1) [7B53E231] (AR v1)
Track 18 accurately ripped (confidence 1) [A84BAA51] (AR v1)
Track 19 accurately ripped (confidence 1) [A886B5A4] (AR v1)
Track 20 accurately ripped (confidence 1) [64E0D405] (AR v1)
Track 21 accurately ripped (confidence 1) [A0AD73AE] (AR v1)
Track 22 accurately ripped (confidence 1) [9BB389EE] (AR v1)

All tracks accurately ripped

End of status report

==== Log checksum 9130147358D6125FE8F1A3E02C67E12B85693EF68EA384DFF73718EC5B292041 ====

Recorded on May 31 & June 1, 1994 at Egg Studio, Seattle, WA., by Conrad Uno & George Sulley
Radically remixed and souped-up in May/June 2013 by Teengenerate.

* Fink - vocals, guitar
* Fifi - guitar, vocals
* Sammy - bass guitar
* Shoe - drums

Release Date: December 13, 2013
Label: Crypt Records
Catalog No.: CR-104

For more TEENGENERATE please visit page.
DOWNLOAD LINKS
Buy Premium From My Links To Get Resumable Support & Max Speed & To Support Me


Links are Interchangeable - No Password - Single Extraction
Direct Download

Tags: Teengenerate, Action

Teengenerate - Get More Action! (2013) Download via Hotfile Rapidshare Fileserve Megaupload & FileSonic, Teengenerate - Get More Action! (2013) free torrent downloads included crack, serial, keygen.Teengenerate - Get More Action! (2013) Fast Download via Rapidshare Hotfile Fileserve Filesonic Megaupload, Teengenerate - Get More Action! (2013) Torrents and Emule Download or anything related.
Leave a Comment
Your Name:
E-Mail:
Add Comments:

Enter Code: