Cilea - Adriana Lecouvreur (Renato Palumbo) (2010)

Download Now

Cilea - Adriana Lecouvreur (Renato Palumbo) (2010)

Cilea - Adriana Lecouvreur (Renato Palumbo) (2010)
BluRay | BDMV | MPEG-4 AVC Video / 12995 kbps / 1080i / 29,970 fps | 151 min | 19,9 GB
Audio: Italian / LPCM Audio 2.0 / 16 bit | Audio2: Italian / DTS-HD Master Audio / 7.1 / 48 kHz / 2815 kbps

BluRay-rip | AVC | MKV 1920x1080 (16:9) / 6215 kbps / 29,970 fps | 151 min | 8,20 GB
Audio: Italian / DTS / 6ch / 1536 kbps / 48.0 KHz / 16 bits
Classical | Arthaus Musik | Sub: Italian, English, French, German, Spanish, Japanese

"An operatic whodunit with gravitas: Francesco Cilea's 'Adriana Lecouvreur'. It is said even Giuseppe Verdi briefly gave consideration to writing an opera based on this whodunit, when Cilea decided to set the material to music in 1899. The opera's world premiere in Milan in 1902 was a triumph, due in no small measure to a stellar cast of singers that included Enrico Caruso as Maurizio."

Cast:
Adriana Lecouvreur - Micaela Carosi
Maurizio - Marcelo Álvarez
La princessa di Bouillon - Marianne Cornetti
Michonnet - Alfonso Antoniozzi
Il principe di Bouillon - Simone Del Savio
L'abate di Chazeuil - Luca Casalin
Madamigella Jouvenot - Antonella De Chiara
Madamigella Dangeville - Patrizia Porzio
Poisson - Carlo Bosi
Quinault - Diego Matamoros
Orchestra and Chorus of the Teatro Regio Torino
Conductor - Renato Palumbo

Disc Title: ADRIANA_LECOUVREUR
Disc Size: 21463976160 bytes
Protection: AACS
BD-Java: No
Playlist: 00000.MPLS
Size: 21302999040 bytes
Length: 2:31:34.452
Total Bitrate: 18,74 Mbps
Video: MPEG-4 AVC Video / 12995 kbps / 1080i / 29,970 fps / 16:9 / High Profile 4.1
Audio: Italian / LPCM Audio / 2.0 / 48 kHz / 1536 kbps / 16-bit
Audio: Italian / DTS-HD Master Audio / 7.1 / 48 kHz / 2815 kbps / 16-bit (DTS Core: 5.1 / 48 kHz / 1509 kbps / 16-bit)
Subtitle: Italian / 15,476 kbps
Subtitle: English / 16,868 kbps
Subtitle: German / 18,414 kbps
Subtitle: French / 17,627 kbps
Subtitle: Spanish / 16,320 kbps
Subtitle: Japanese / 13,503 kbps

General
Unique ID
: 213192993879545547898271850751201351532 (0xA0637A2237B05DC59A9E0F43D6EF976C)
Complete name : C:\Adriana_Lecouvreur.mkv
Format
: Matroska
Format version : Version 2
File size
: 8.21 GiB
Duration
: 2h 31mn
Overall bit rate : 7 763 Kbps
Movie name
: Adriana_Lecouvreur
Encoded date : UTC 2015-08-31 13:40:07
Writing application

: DVDFab 9.1.6.8
Writing library : libebml v0.7.8 + libmatroska v0.8.1

Video
ID : 1
Format
: AVC
Format/Info
: Advanced Video Codec
Format profile : [email protected]
Format settings, CABAC : Yes
Format settings, ReFrames : 2 frames
Codec ID
: V_MPEG4/ISO/AVC
Duration
: 2h 31mn
Bit rate
: 6 215 Kbps
Width
: 1 920 pixels
Height
: 1 080 pixels
Display aspect ratio : 16:9
Frame rate mode : Constant
Frame rate
: 29.970 fps
Color space
: YUV
Chroma subsampling

: 4:2:0
Bit depth
: 8 bits
Scan type
: Progressive
Bits/(Pixel*Frame)

: 0.100
Stream size
: 6.45 GiB (79%)
Writing library : x264 core 142
Encoding settings: cabac=1 / ref=1 / deblock=1:-1:-1 / analyse=0x3:0 / me=hex / subme=5 / psy=0 / mixed_ref=0 / me_range=16 / chroma_me=1 / trellis=0 / 8x8dct=1 / cqm=0 / deadzone=21,11 / fast_pskip=1 / chroma_qp_offset=0 / threads=8 / lookahead_threads=2 / sliced_threads=0 / nr=0 / decimate=1 / interlaced=0 / bluray_compat=0 / constrained_intra=0 / bframes=2 / b_pyramid=0 / b_adapt=1 / b_bias=0 / direct=1 / weightb=1 / open_gop=0 / weightp=0 / keyint=24 / keyint_min=13 / scenecut=40 / intra_refresh=0 / rc=abr / mbtree=0 / bitrate=6215 / ratetol=1.0 / qcomp=0.60 / qpmin=0 / qpmax=69 / qpstep=4 / ip_ratio=1.40 / pb_ratio=1.30 / aq=1:1.00
Default
: Yes
Forced
: No
Color primaries : BT.709
Transfer characteristics : BT.709
Matrix coefficients

: BT.709
Color range
: Limited

Audio
ID : 2
Format
: DTS
Format/Info
: Digital Theater Systems
Mode
: 16
Format settings, Endianness : Big
Codec ID
: A_DTS
Duration
: 2h 31mn
Bit rate mode : Constant
Bit rate
: 1 509 Kbps
Channel(s)
: 6 channels
Channel positions: Front: L C R, Side: L R, LFE
Sampling rate : 48.0 KHz
Bit depth
: 16 bits
Compression mode : Lossy
Stream size
: 1.60 GiB (19%)
Default
: Yes
Forced
: No

Text #1
ID : 3
Format
: VobSub
Codec ID
: S_VOBSUB
Codec ID/Info : The same subtitle format used on DVDs
Language
: Italian
Default
: Yes
Forced
: No

Text #2
ID : 4
Format
: VobSub
Codec ID
: S_VOBSUB
Codec ID/Info : The same subtitle format used on DVDs
Language
: English
Default
: No
Forced
: No

Text #3
ID : 5
Format
: VobSub
Codec ID
: S_VOBSUB
Codec ID/Info : The same subtitle format used on DVDs
Language
: German
Default
: No
Forced
: No

Text #4
ID : 6
Format
: VobSub
Codec ID
: S_VOBSUB
Codec ID/Info : The same subtitle format used on DVDs
Language
: French
Default
: No
Forced
: No

Text #5
ID : 7
Format
: VobSub
Codec ID
: S_VOBSUB
Codec ID/Info : The same subtitle format used on DVDs
Language
: Spanish
Default
: No
Forced
: No

Text #6
ID : 8
Format
: VobSub
Codec ID
: S_VOBSUB
Codec ID/Info : The same subtitle format used on DVDs
Language
: Japanese
Default
: No
Forced
: No

Menu
00:00:00.000 : en:Chapter 01
00:02:28.348 : en:Chapter 02
00:10:39.639 : en:Chapter 03
00:17:01.020 : en:Chapter 04
00:21:53.311 : en:Chapter 05
00:27:24.643 : en:Chapter 06
00:31:46.704 : en:Chapter 07
00:37:32.049 : en:Chapter 08
00:40:48.446 : en:Chapter 09
00:43:57.635 : en:Chapter 10
00:45:25.522 : en:Chapter 11
00:51:18.075 : en:Chapter 12
00:54:51.087 : en:Chapter 13
00:58:24.501 : en:Chapter 14
01:05:37.934 : en:Chapter 15
01:11:23.279 : en:Chapter 16
01:17:39.287 : en:Chapter 17
01:24:16.918 : en:Chapter 18
01:28:32.307 : en:Chapter 19
01:30:59.454 : en:Chapter 20
01:37:54.668 : en:Chapter 21
01:45:46.340 : en:Chapter 22
01:49:31.565 : en:Chapter 23
01:53:15.789 : en:Chapter 24
01:56:03.756 : en:Chapter 25
01:57:46.059 : en:Chapter 26
02:03:38.411 : en:Chapter 27
02:08:01.674 : en:Chapter 28
02:10:59.852 : en:Chapter 29
02:15:21.113 : en:Chapter 30
02:29:53.985 : en:Chapter 31

All screenshots taken from BDRip

Cilea - Adriana Lecouvreur (Renato Palumbo) (2010)




DOWNLOAD LINKS:
Buy Premium To Support Me & Get Resumable Support & Max Speed


Links are Interchangeable - No Password - Single Extraction
Direct Download

Tags: Adriana, Lecouvreur, Renato, Palumbo

Cilea - Adriana Lecouvreur (Renato Palumbo) (2010) Download via Hotfile Rapidshare Fileserve Megaupload & FileSonic, Cilea - Adriana Lecouvreur (Renato Palumbo) (2010) free torrent downloads included crack, serial, keygen.Cilea - Adriana Lecouvreur (Renato Palumbo) (2010) Fast Download via Rapidshare Hotfile Fileserve Filesonic Megaupload, Cilea - Adriana Lecouvreur (Renato Palumbo) (2010) Torrents and Emule Download or anything related.
Leave a Comment
Your Name:
E-Mail:
Add Comments:

Enter Code: