Duran Duran - Paper Gods (2015) {Warner Bros.}

Download Now


Duran Duran - Paper Gods (2015) {Warner Bros.}
Duran Duran - Paper Gods (2015) {Warner Bros.}
EAC rip (secure mode) | FLAC (tracks)+CUE+LOG -> 488 Mb | MP3 @320 -> 167 Mb
Full Artwork @ 300 dpi (jpg) -> 25 Mb | 5% repair rar
© 2015 Warner Bros. Records | 9362-49251-4
Rock / Dance Rock / Synth Pop / Contemporary Pop

"With the cover art for Paper Gods, Duran Duran cheekily revisit icons of their past: the smile of Rio, the cap of the "Chauffeur," girls on film, and a prowling tiger. Thirty years in, Duran Duran are comfortable enough to play with their past, comfortable enough to draw an explicit connection to their back pages by hiring Nile Rodgers -- who helmed Notorious back in the day -- to do a bit of production alongside Mark Ronson, the hitmaker who gave the group a refurbishment on 2010's All You Need Is Now. Most of the record, however, bears credits either by Mr. Hudson or Josh Blair, two younger musicians who help give Paper Gods a bit of a contemporary glint."

Duran Duran - Paper Gods (2015) {Warner Bros.}

"While there are nods at the '80s and even the '90s arriving in the form of samples, synthesizers, and power ballads, Paper Gods is an aggressively modern album, living in the oversaturated world where emojis and gifs battle in perpetual motion. Whenever Duran Duran seem slick and savvy -- i.e, when they bring Janelle Monáe in to play with Rodgers on "Pressure Off" -- they manage to undercut their hipster overture with either crass commerciality or something flat-out tasteless, like when Lindsay Lohan drops in to growl through "Danceophobia." The thing is, Paper Gods works better because it has space for these sides of Duran Duran, moments where they seem like the coolest band to bear a synth and the dorkiest to ever chase a club trend. Most of the album exists somewhere between these two extremes, gathering steam with the giddy neo-disco of "Change the Skyline" and benefiting from moody assists from ex-Red Hot Chili Pepper John Frusciante (he brings the closer "The Universe Alone" to an apocalyptic crescendo), but it's that tension between the good and the bad, the yin and yang of Duran Duran, that makes Paper Gods absorbing."


Duran Duran - Paper Gods (2015) {Warner Bros.}


tracklist:
01. Paper Gods (feat. Mr Hudson)
02. Last Night In The City (feat Kiesza)
03.You Kill Me With Silence
04. Pressure Off (feat Janelle Monae & Nile Rodgers)
05. Face For Today
06. Danceophobia
07. What Are The Chances?
08. Sunset Garage
09. Change The Skyline (feat Jonas Bjerre)
10. Butterfly Girl
11. Only In Dreams
12. The Universe Alone
13. Planet Roaring
14. Valentine Stones
15. Northern Lights

Exact Audio Copy V1.0 beta 4 from 7. December 2014

EAC extraction logfile from 12. September 2015, 18:46

Duran Duran / Paper Gods

Used drive : MATSHITADVD-RAM UJ8D2Q Adapter: 1 ID: 0

Read mode : Secure
Utilize accurate stream : Yes
Defeat audio cache : Yes
Make use of C2 pointers : No

Read offset correction

: 103
Overread into Lead-In and Lead-Out : No
Fill up missing offset samples with silence : Yes
Delete leading and trailing silent blocks : No
Null samples used in CRC calculations : Yes
Used interface
: Native Win32 interface for Win NT & 2000
Gap handling
: Appended to previous track

Used output format : User Defined Encoder
Selected bitrate : 896 kBit/s
Quality : High
Add ID3 tag : No
Command line compressor : C:\Program Files (x86)\Exact Audio Copy\Flac\flac.exe
Additional command line options : -8 -V -T "ARTIST=%artist%" -T "TITLE=%title%" -T "ALBUM=%albumtitle%" -T "DATE=%year%" -T "TRACKNUMBER=%tracknr%" -T "TOTALTRACKS=%numtracks%" -T "GENRE=%genre%" -T "ALBUMARTIST=%albumartist%" -T "ALBUM ARTIST=%albumartist%" -T "COMMENT=EAC Secure Mode, Test & Copy, AccurateRip, FLAC -8" %source%

TOC of the extracted CD Track | Start | Length | Start sector | End sector
--1 | 0:00.00 | 7:01.72 | 0 | 31646 2 | 7:01.72 | 4:44.18 | 31647 | 52964 3 | 11:46.15 | 4:28.46 | 52965 | 73110 4 | 16:14.61 | 4:19.10 | 73111 | 92545 5 | 20:33.71 | 3:51.62 | 92546 | 109932 6 | 24:25.58 | 4:13.43 | 109933 | 128950 7 | 28:39.26 | 4:55.68 | 128951 | 151143 8 | 33:35.19 | 4:43.03 | 151144 | 172371 9 | 38:18.22 | 3:57.56 | 172372 | 190202
10 | 42:16.03 | 3:15.73 | 190203 | 204900
11 | 45:32.01 | 6:05.22 | 204901 | 232297
12 | 51:37.23 | 6:02.52 | 232298 | 259499
13 | 57:40.00 | 3:49.61 | 259500 | 276735
14 | 61:29.61 | 3:30.37 | 276736 | 292522
15 | 65:00.23 | 5:13.51 | 292523 | 316048

Track 1 Filename C:\Users\paul\AppData\Local\VirtualStore\Program Files (x86)\Exact Audio Copy\Flac\01 - Paper Gods - Duran Duran (feat. Mr Hudson).wav Pre-gap length 0:00:02.00 Peak level 95.9 %
Extraction speed 2.3 X
Track quality 99.9 %
Test CRC A08A9F55
Copy CRC A08A9F55
Track not present in AccurateRip database
Copy OK

Track 2 Filename C:\Users\paul\AppData\Local\VirtualStore\Program Files (x86)\Exact Audio Copy\Flac\02 - Last Night In The City - Duran Duran (feat. Kiesza).wav Peak level 95.9 %
Extraction speed 3.0 X
Track quality 100.0 %
Test CRC 6AAE8387
Copy CRC 6AAE8387
Track not present in AccurateRip database
Copy OK

Track 3 Filename C:\Users\paul\AppData\Local\VirtualStore\Program Files (x86)\Exact Audio Copy\Flac\03 - You Kill Me With Silence - Duran Duran.wav Peak level 95.9 %
Extraction speed 3.2 X
Track quality 100.0 %
Test CRC 47BEA263
Copy CRC 47BEA263
Track not present in AccurateRip database
Copy OK

Track 4 Filename C:\Users\paul\AppData\Local\VirtualStore\Program Files (x86)\Exact Audio Copy\Flac\04 - Pressure Off - Duran Duran (feat. Janelle Monae and Nile Rodgers).wav Peak level 97.7 %
Extraction speed 3.4 X
Track quality 100.0 %
Test CRC 6794B3A2
Copy CRC 6794B3A2
Track not present in AccurateRip database
Copy OK

Track 5 Filename C:\Users\paul\AppData\Local\VirtualStore\Program Files (x86)\Exact Audio Copy\Flac\05 - Face For Today - Duran Duran.wav Peak level 94.8 %
Extraction speed 3.5 X
Track quality 100.0 %
Test CRC A50130D2
Copy CRC A50130D2
Track not present in AccurateRip database
Copy OK

Track 6 Filename C:\Users\paul\AppData\Local\VirtualStore\Program Files (x86)\Exact Audio Copy\Flac\06 - Danceophobia - Duran Duran.wav Peak level 94.8 %
Extraction speed 3.6 X
Track quality 100.0 %
Test CRC 67F5F138
Copy CRC 67F5F138
Track not present in AccurateRip database
Copy OK

Track 7 Filename C:\Users\paul\AppData\Local\VirtualStore\Program Files (x86)\Exact Audio Copy\Flac\07 - What Are The Chances - Duran Duran.wav Peak level 95.9 %
Extraction speed 3.9 X
Track quality 100.0 %
Test CRC 27BD0EEB
Copy CRC 27BD0EEB
Track not present in AccurateRip database
Copy OK

Track 8 Filename C:\Users\paul\AppData\Local\VirtualStore\Program Files (x86)\Exact Audio Copy\Flac\08 - Sunset Garage - Duran Duran.wav Peak level 94.8 %
Extraction speed 4.1 X
Track quality 100.0 %
Test CRC 55D0FC3E
Copy CRC 55D0FC3E
Track not present in AccurateRip database
Copy OK

Track 9 Filename C:\Users\paul\AppData\Local\VirtualStore\Program Files (x86)\Exact Audio Copy\Flac\09 - Change The Skyline - Duran Duran (feat. Jonas Bjerre).wav Peak level 97.7 %
Extraction speed 4.1 X
Track quality 100.0 %
Test CRC E6D86FDF
Copy CRC E6D86FDF
Track not present in AccurateRip database
Copy OK

Track 10 Filename C:\Users\paul\AppData\Local\VirtualStore\Program Files (x86)\Exact Audio Copy\Flac\10 - Butterfly Girl - Duran Duran.wav Peak level 94.8 %
Extraction speed 4.1 X
Track quality 100.0 %
Test CRC 0515D48D
Copy CRC 0515D48D
Track not present in AccurateRip database
Copy OK

Track 11 Filename C:\Users\paul\AppData\Local\VirtualStore\Program Files (x86)\Exact Audio Copy\Flac\11 - Only In Dreams - Duran Duran.wav Peak level 94.8 %
Extraction speed 4.6 X
Track quality 100.0 %
Test CRC BBD3438D
Copy CRC BBD3438D
Track not present in AccurateRip database
Copy OK

Track 12 Filename C:\Users\paul\AppData\Local\VirtualStore\Program Files (x86)\Exact Audio Copy\Flac\12 - The Universe Alone - Duran Duran.wav Peak level 94.8 %
Extraction speed 4.8 X
Track quality 100.0 %
Test CRC B80EA418
Copy CRC B80EA418
Track not present in AccurateRip database
Copy OK

Track 13 Filename C:\Users\paul\AppData\Local\VirtualStore\Program Files (x86)\Exact Audio Copy\Flac\13 - Planet Roaring - Duran Duran.wav Pre-gap length 0:00:15.00 Peak level 94.8 %
Extraction speed 4.7 X
Track quality 100.0 %
Test CRC D0C57C16
Copy CRC D0C57C16
Track not present in AccurateRip database
Copy OK

Track 14 Filename C:\Users\paul\AppData\Local\VirtualStore\Program Files (x86)\Exact Audio Copy\Flac\14 - Valentine Stones - Duran Duran.wav Peak level 97.6 %
Extraction speed 3.2 X
Track quality 99.9 %
Test CRC AB6C295D
Copy CRC AB6C295D
Track not present in AccurateRip database
Copy OK

Track 15 Filename C:\Users\paul\AppData\Local\VirtualStore\Program Files (x86)\Exact Audio Copy\Flac\15 - Northern Lights - Duran Duran.wav Peak level 94.8 %
Extraction speed 5.0 X
Track quality 100.0 %
Test CRC 295DE58C
Copy CRC 295DE58C
Track not present in AccurateRip database
Copy OK

None of the tracks are present in the AccurateRip database

No errors occurred

End of status report

- CUETools DB Plugin V2.1.4

[CTDB TOCID: yXLs_Fb2pWYixfDA57snRHtOoTg-] found
Submit result: yXLs_Fb2pWYixfDA57snRHtOoTg- has been confirmed
Track | CTDB Status
1 | (6/6) Accurately ripped
2 | (6/6) Accurately ripped
3 | (6/6) Accurately ripped
4 | (6/6) Accurately ripped
5 | (6/6) Accurately ripped
6 | (6/6) Accurately ripped
7 | (6/6) Accurately ripped
8 | (6/6) Accurately ripped
9 | (6/6) Accurately ripped
10 | (6/6) Accurately ripped
11 | (6/6) Accurately ripped
12 | (6/6) Accurately ripped
13 | (6/6) Accurately ripped
14 | (6/6) Accurately ripped
15 | (6/6) Accurately ripped

==== Log checksum 1C6E7D6402962B7FB3CA36E832FC77A173867CB937E47A9A05829DC03AD949A1 ====

Duran Duran - Paper Gods (2015) {Warner Bros.}

Duran Duran - Paper Gods (2015) {Warner Bros.}


All thanks goes to the original releaser!
DOWNLOAD LINKS:
Buy Premium To Support Me & Get Resumable Support & Max Speed


Links are Interchangeable - No Password - Single Extraction
Direct Download

Tags: Warner

Duran Duran - Paper Gods (2015) {Warner Bros.} Download via Hotfile Rapidshare Fileserve Megaupload & FileSonic, Duran Duran - Paper Gods (2015) {Warner Bros.} free torrent downloads included crack, serial, keygen.Duran Duran - Paper Gods (2015) {Warner Bros.} Fast Download via Rapidshare Hotfile Fileserve Filesonic Megaupload, Duran Duran - Paper Gods (2015) {Warner Bros.} Torrents and Emule Download or anything related.
Leave a Comment
Your Name:
E-Mail:
Add Comments:

Enter Code: