Kerry Livgren - Time Line (1984)

Download Now

Kerry Livgren - Time Line (1984)

Kerry Livgren - Time Line (1984)
EAC Rip | FLAC (images & cue & log) | 387 MB | MP3 CBR 320 kbps | 133 MB | Scans | 58:10
Genre: Progressive Rock / Crossover Prog Rock | Country: USA | Label: Renaissance/Sony Special Products | RMED00101

"After Kerry left his previous band, Kansas, in 1983, he and his newly formed crew began production for Livgren's second solo album. Time Line was made for CBS Records and was recorded with material created by the crew. While recording, Kerry and his new crew all shared the same interest in Christianity and all the members had came together to form AD by the end of the session. Due to a complication in the label release, Time Line was unable to receive much attention compared to some of Livgren's past works with Kansas."

Kerry Livgren - Time Line (1984)

Discogs
Progarchives

Tracklist:

1. Time Line (4:04)
2. Tonight (4:52)
3. Make Or Break It (3:48)
4. Take Us To The Water (4:27)
5. Beyond The Pale (3:33)
6. New Age Blues (3:54)
7. Slow Motion Suicide (4:46)
8. High On A Hill (3:51)
9. Life Undercover (3:26)
10. Welcome To The War (5:10)

Exact Audio Copy V0.99 prebeta 4 from 23. January 2008

Отчёт EAC об извлечении, выполненном 7. сентября 2008, 9:47

Kerry Livgren / Time Line

Дисковод: Optiarc DVD RW AD-7200S Adapter: 4 ID: 0

Режим чтения : Достоверность
Использование точного потока : Да
Отключение кэша аудио : Да
Использование указателей C2 : Нет

Комбинированное смещение чтения/записи : 48
Способность читать области Lead-in и Lead-out : Нет
Заполнение пропущенных сэмплов тишиной : Да
Удаление блоков с тишиной в начале и конце : Нет
При вычислениях CRC использовались нулевые сэмплы : Да
Интерфейс : Установленный внешний ASPI-интерфейс

Выходной формат : Пользовательский кодировщик
Выбранный битрейт : 768 kBit/s
Качество : Высокий
Добавление ID3-тэга : Нет
Утилита сжатия : C:\Program Files\Exact Audio Copy\FLAC\FLAC.EXE
Дополнительные параметры : -6 -V -T "ARTIST=%a" -T "TITLE=%t" -T "ALBUM=%g" -T "DATE=%y" -T "TRACKNUMBER=%n" -T "GENRE=%m" -T "COMMENT=%e" %s -o %d

TOC извлечённого CD Трек | Старт | Длительность | Начальный сектор | Конечный сектор

1 | 0:00.00 | 4:04.30 | 0 | 18329
2 | 4:04.30 | 4:53.52 | 18330 | 40356
3 | 8:58.07 | 3:50.05 | 40357 | 57611
4 | 12:48.12 | 4:29.58 | 57612 | 77844
5 | 17:17.70 | 3:35.30 | 77845 | 93999
6 | 20:53.25 | 3:54.62 | 94000 | 111611
7 | 24:48.12 | 4:47.38 | 111612 | 133174
8 | 29:35.50 | 3:52.55 | 133175 | 150629
9 | 33:28.30 | 3:26.55 | 150630 | 166134
10 | 36:55.10 | 5:12.17 | 166135 | 189551
11 | 42:07.27 | 24:07.60 | 189552 | 298136

Характеристики диапазона извлечения и сообщения об ошибках

Выбранный диапазон Имя файла E:\avm\Upload\Kerry Livgren-Time Line\Kerry Livgren - Time Line.wav Пиковый уровень 100.0 %
Качество диапазона 99.9 %
CRC копии 3EEC054C
Копирование... OK

Ошибок не произошло

Конец отчёта

Personnel

Kerry Livgren guitars, keyboards, bass
Michael Gleason lead and backing vocals, keyboards, percussion
Warren Ham lead and backing vocals, woodwinds, harmonica
Dave Hope bass
Dennis Holt drums, percussion

All thanks to jingara

Kerry Livgren - Time Line (1984)


DOWNLOAD:
Buy Premium To Support Me & Get Resumable Support & Max Speed


Links are Interchangeable - No Password
Direct Download

Tags: Livgren

Kerry Livgren - Time Line (1984) Download via Hotfile Rapidshare Fileserve Megaupload & FileSonic, Kerry Livgren - Time Line (1984) free torrent downloads included crack, serial, keygen.Kerry Livgren - Time Line (1984) Fast Download via Rapidshare Hotfile Fileserve Filesonic Megaupload, Kerry Livgren - Time Line (1984) Torrents and Emule Download or anything related.
Leave a Comment
Your Name:
E-Mail:
Add Comments:

Enter Code: