George Michael - Faith (1987) [2013, Japan Blu-Spec CD2]

Download Now

George Michael - Faith (1987) [2013, Japan Blu-Spec CD2]

George Michael - Faith (1987) [2013, Japan Blu-Spec CD2]
Pop/Rock, Contemporary R&B, Vocal | EAC Rip | FLAC, Tracks+CUE + LOG + Artwork (JPEG) | 51:34 Min | 355,85 Mb
Label: Sony Music Japan International Inc. (Japan) | Released: 2013, July, 24

"
Faith is the first solo album by British singer-songwriter George Michael, released in October 1987 via Columbia Records/Epic Records. The album has won several awards including the Grammy Award for Album of the Year in 1989. To date, the album has sold over 25 million copies worldwide, and received diamond certification from the Recording Industry Association of America.
"

George Michael - Faith (1987) [2013, Japan Blu-Spec CD2]


Release of the album: 1987, October, 30 [LP Epic, Cat.# 460000 1, UK]
Release of this CD: 2013, July, 24 [CD Sony Music Japan International Inc. (Japan), Cat.# SICP-30190 / EAN: 4547366197693]
℗© 1987 Sony Music Entertainment (UK) Ltd.
Manufactured by Sony Music Japan International Inc.
Note: Reissue, CD Blu-spec CD2
Audiophile BSCD2 uses phase transition mastering, the technology developed for mastering of Blu-ray discs.
Playable on standard CD player.

Design - George Michael, Stylorouge
Engineer - Chris Porter
Engineer [Assisted By] - Paul Gomershall, Paul Wright
Photography By - Russell Young
Producer, Arranged By - George Michael
Written-By - George Michael (tracks: 1 to 6, 8 to 11); David Austin, George Michael (tracks: 7)


Tracklist:

01. Faith (03:13)
(George Michael)
02. Father Figure (05:37)
(George Michael)
03. I Want Your Sex (Parts 1 & 2) (09:17)
(George Michael)
04. One More Try (05:51)
(George Michael)
05. Hard Day (04:48)
(George Michael)
06. Hand To Mouth (04:36)
(George Michael)
07. Look At Your Hands (04:38)
(David Austin, George Michael)
08. Monkey (05:06)
(George Michael)
09. Kissing A Fool (04:41)
(George Michael)
10. A Last Request (I Want Your Sex Part 3) (03:47)
(George Michael)

Exact Audio Copy V1.0 beta 6 from 9. April 2015

EAC extraction logfile from 10. June 2015, 19:49

George Michael / Faith [2013 Blu Spec CD2]

Used drive : TSSTcorpCDDVDW SE-208DB Adapter: 1 ID: 0

Read mode : Secure
Utilize accurate stream : Yes
Defeat audio cache : Yes
Make use of C2 pointers : No

Read offset correction

: 6
Overread into Lead-In and Lead-Out : No
Fill up missing offset samples with silence : Yes
Delete leading and trailing silent blocks : No
Null samples used in CRC calculations : Yes
Used interface
: Native Win32 interface for Win NT & 2000
Gap handling
: Appended to previous track

Used output format : User Defined Encoder
Selected bitrate : 1024 kBit/s
Quality : High
Add ID3 tag : No
Command line compressor : C:\Program Files (x86)\Exact Audio Copy\Flac\flac.exe
Additional command line options : -8 -V -T "ARTIST=%artist%" -T "TITLE=%title%" -T "ALBUM=%albumtitle%" -T "DATE=%year%" -T "TRACKNUMBER=%tracknr%" -T "GENRE=%genre%" -T "PERFORMER=%albuminterpret%" -T "COMPOSER=%composer%" %haslyrics%--tag-from-file=LYRICS="%lyricsfile%"%haslyrics% -T "ALBUMARTIST=%albumartist%" -T "ALBUM ARTIST=%albumartist%" -T "DISCNUMBER=%cdnumber%" -T "TOTALDISCS=%totalcds%" -T "TOTALTRACKS=%numtracks%" -T "COMMENT=EAC V1.0 beta 6, Secure Mode, Test & Copy, AccurateRip, FLAC - 8 - bsw" %source%

TOC of the extracted CD Track | Start | Length | Start sector | End sector
--1 | 0:00.00 | 3:13.15 | 0 | 14489 2 | 3:13.15 | 5:36.50 | 14490 | 39739 3 | 8:49.65 | 9:17.22 | 39740 | 81536 4 | 18:07.12 | 5:50.50 | 81537 | 107836 5 | 23:57.62 | 4:48.05 | 107837 | 129441 6 | 28:45.67 | 4:36.08 | 129442 | 150149 7 | 33:22.00 | 4:37.60 | 150150 | 170984 8 | 37:59.60 | 5:06.07 | 170985 | 193941 9 | 43:05.67 | 4:40.53 | 193942 | 214994
10 | 47:46.45 | 3:47.37 | 214995 | 232056

Track 1 Filename C:\EAC\01 - Faith.wav Pre-gap length 0:00:02.00 Peak level 98.3 %
Extraction speed 0.8 X
Track quality 99.9 %
Test CRC EBFBFF04
Copy CRC EBFBFF04
Accurately ripped (confidence 2) [60A06BE4] (AR v2)
Copy OK

Track 2 Filename C:\EAC\02 - Father Figure.wav Peak level 98.2 %
Extraction speed 1.0 X
Track quality 99.9 %
Test CRC 4C25CC50
Copy CRC 4C25CC50
Accurately ripped (confidence 2) [CE33B78A] (AR v2)
Copy OK

Track 3 Filename C:\EAC\03 - I Want Your Sex (Parts 1 & 2).wav Peak level 91.3 %
Extraction speed 1.4 X
Track quality 100.0 %
Test CRC 784525D2
Copy CRC 784525D2
Accurately ripped (confidence 2) [E3124129] (AR v2)
Copy OK

Track 4 Filename C:\EAC\04 - One More Try.wav Peak level 98.2 %
Extraction speed 1.4 X
Track quality 100.0 %
Test CRC 7096E8A6
Copy CRC 7096E8A6
Accurately ripped (confidence 2) [1BCEB0E1] (AR v2)
Copy OK

Track 5 Filename C:\EAC\05 - Hard Day.wav Peak level 98.5 %
Extraction speed 1.5 X
Track quality 100.0 %
Test CRC EF3E9882
Copy CRC EF3E9882
Accurately ripped (confidence 2) 1C0C8B4 (AR v2)
Copy OK

Track 6 Filename C:\EAC\06 - Hand To Mouth.wav Peak level 98.3 %
Extraction speed 1.5 X
Track quality 100.0 %
Test CRC D927FB15
Copy CRC D927FB15
Accurately ripped (confidence 2) [2E0E50E8] (AR v2)
Copy OK

Track 7 Filename C:\EAC\07 - Look At Your Hands.wav Peak level 98.2 %
Extraction speed 1.6 X
Track quality 100.0 %
Test CRC 08CA086F
Copy CRC 08CA086F
Accurately ripped (confidence 2) [8E8383EF] (AR v2)
Copy OK

Track 8 Filename C:\EAC\08 - Monkey.wav Peak level 98.2 %
Extraction speed 1.5 X
Track quality 99.9 %
Test CRC E51D5D4C
Copy CRC E51D5D4C
Accurately ripped (confidence 2) [5691A563] (AR v2)
Copy OK

Track 9 Filename C:\EAC\09 - Kissing A Fool.wav Peak level 97.7 %
Extraction speed 1.7 X
Track quality 100.0 %
Test CRC 07583373
Copy CRC 07583373
Accurately ripped (confidence 2) 830E212 (AR v2)
Copy OK

Track 10 Filename C:\EAC\10 - A Last Request (I Want Your Sex Part 3).wav Peak level 97.3 %
Extraction speed 1.7 X
Track quality 100.0 %
Test CRC B4105492
Copy CRC B4105492
Accurately ripped (confidence 2) [568367D4] (AR v2)
Copy OK

All tracks accurately ripped

No errors occurred

End of status report

- CUETools DB Plugin V2.1.6

[CTDB TOCID: keoHfoImqOgLlQrEBWaAJZs12ZE-] found
Submit result: already submitted
Track | CTDB Status
1 | (3/3) Accurately ripped
2 | (3/3) Accurately ripped
3 | (3/3) Accurately ripped
4 | (3/3) Accurately ripped
5 | (3/3) Accurately ripped
6 | (3/3) Accurately ripped
7 | (3/3) Accurately ripped
8 | (3/3) Accurately ripped
9 | (3/3) Accurately ripped
10 | (3/3) Accurately ripped

==== Log checksum 62C702FF9B0ED37CCD9941B6AAD4F9561F08FBC04BB8EDBD2C46BDB5CD871EE2 ====

foobar2000 1.3.8 / Dynamic Range Meter 1.1.0
log date: 2015-06-10 20:06:06

Analyzed: George Michael / Faith [2013 Blu Spec CD2]

DR Peak RMS Duration Track

DR14 -0.15 dB -16.10 dB 3:13 01-Faith
DR13 -0.15 dB -16.47 dB 5:37 02-Father Figure
DR13 -0.78 dB -15.93 dB 9:17 03-I Want Your Sex (Parts 1 & 2)
DR12 -0.15 dB -13.82 dB 5:51 04-One More Try
DR9 -0.13 dB -10.30 dB 4:48 05-Hard Day
DR11 -0.14 dB -12.03 dB 4:36 06-Hand To Mouth
DR12 -0.15 dB -13.72 dB 4:38 07-Look At Your Hands
DR12 -0.15 dB -14.29 dB 5:06 08-Monkey
DR10 -0.19 dB -12.16 dB 4:41 09-Kissing A Fool
DR11 -0.23 dB -12.46 dB 3:47 10-A Last Request (I Want Your Sex Part 3)

Number of tracks: 10
Official DR value: DR12

Samplerate: 44100 Hz
Channels: 2
Bits per sample: 16
Bitrate: 817 kbps
Codec: FLAC

All thanks to - bigsimonwilde

password: BlondStyle


Download Links:
(Premium Recommended)


All above links are interchangable. No password
Direct Download

Tags: George, Michael

George Michael - Faith (1987) [2013, Japan Blu-Spec CD2] Download via Hotfile Rapidshare Fileserve Megaupload & FileSonic, George Michael - Faith (1987) [2013, Japan Blu-Spec CD2] free torrent downloads included crack, serial, keygen.George Michael - Faith (1987) [2013, Japan Blu-Spec CD2] Fast Download via Rapidshare Hotfile Fileserve Filesonic Megaupload, George Michael - Faith (1987) [2013, Japan Blu-Spec CD2] Torrents and Emule Download or anything related.
Leave a Comment
Your Name:
E-Mail:
Add Comments:

Enter Code: