Bryan Lee - Live & Dangerous (2005)

Download Now

Bryan Lee - Live & Dangerous (2005)

Bryan Lee - Live & Dangerous (2005)
EAC | FLAC | Image (Cue&Log) ~ 582 Mb (incl 5%) | Mp3 (CBR320) ~ 201 Mb (incl 5%) | Scans included
Genre: Modern Electric Blues | Label: Justin Time | # Just 205-2 | Time: 01:15:19

"Born in Wisconsin in 1945, blind blues singer/guitarist Bryan Lee has been based in New Orleans since the beginning of the '80s but he and his band regularly tour and this particular concert was recorded in front of a large, enthusiastic audience at the Spectrum in Montreal in October 2003. The repertoire is a typically ballsy mix of originals like "The Bounce" and "Memphis Bound" and versions of R&B classics such as Jackie Brenston's "Rocket 88" and Jimy McCracklin's "The Walk"."

"I didn't really know Bryan Lee before this album. Amazon just kept his name in front of me till I gave in and bought it. I guess suggestive selling really does work. Born in Wisconsin, Lee lives in New Orleans and has recorded for the past 14 years. for a Montreal label. No one can say he doesn't get around. Recorded in Montreal, "Live and Dangerous" is a smokin set from a talented blues singer and guitarist who flew under my radar for far too long. By the way, I liked the album well enough to buy two more of his. Just thought you should know. Enjoy!

Review by John Terry, Amazon.com
"


Bryan Lee at Allmusic
Bryan Lee Website
Bryan Lee at Wiki

Tracklist:

01. The Bounce (05:06)
02. The Walk (03:56)
03. Don't Take My Blindness for Weakness (07:40)
04. Second Line Home (05:32)
05. Rocket 88 (04:27)
06. Blues on My Mind (05:14)
07. Hug Me Til it Hurts (07:12)
08. Gave You What You Wanted (06:41)
09. No Need To Worry (05:36)
10. Six String Therapy (15:18)
11. Memphis Bound (08:32)


Exact Audio Copy V0.99 prebeta 5 from 4. May 2009

Отчёт EAC об извлечении, выполненном 10. сентября 2015, 12:19

Bryan Lee / Live & Dangerous

Дисковод: ASUS DRW-24F1ST a Adapter: 0 ID: 0

Режим чтения : Достоверность
Использование точного потока : Да
Отключение кэша аудио : Да
Использование указателей C2 : Нет

Коррекция смещения при чтении : 6
Способность читать области Lead-in и Lead-out : Нет
Заполнение пропущенных сэмплов тишиной : Да
Удаление блоков с тишиной в начале и конце : Нет
При вычислениях CRC использовались нулевые сэмплы : Да
Интерфейс : Встроенный Win32-интерфейс для Win NT/2000

Выходной формат : Пользовательский кодировщик
Выбранный битрейт : 768 kBit/s
Качество : Высокий
Добавление ID3-тэга : Нет
Утилита сжатия : D:\05. Other\01. Programmes\Exact Audio Copy\FLAC\FLAC.EXE
Дополнительные параметры : -6 -V -T "ARTIST=%a" -T "TITLE=%t" -T "ALBUM=%g" -T "DATE=%y" -T "TRACKNUMBER=%n" -T "GENRE=%m" -T "COMMENT=%e" %s -o %d

TOC извлечённого CD Трек | Старт | Длительность | Начальный сектор | Конечный сектор

1 | 0:00.00 | 5:06.47 | 0 | 22996
2 | 5:06.47 | 3:56.60 | 22997 | 40756
3 | 9:03.32 | 7:40.00 | 40757 | 75256
4 | 16:43.32 | 5:32.25 | 75257 | 100181
5 | 22:15.57 | 4:27.55 | 100182 | 120261
6 | 26:43.37 | 5:14.17 | 120262 | 143828
7 | 31:57.54 | 7:12.43 | 143829 | 176271
8 | 39:10.22 | 6:41.20 | 176272 | 206366
9 | 45:51.42 | 5:36.55 | 206367 | 231621
10 | 51:28.22 | 15:18.12 | 231622 | 300483
11 | 66:46.34 | 8:32.40 | 300484 | 338923

Характеристики диапазона извлечения и сообщения об ошибках

Выбранный диапазон Имя файла D:\Bryan Lee - Live & Dangerous (2005)\Bryan Lee - Live & Dangerous.wav Пиковый уровень 100.0 %
Качество диапазона 100.0 %
CRC теста 0C048AAB
CRC копии 0C048AAB
Копирование... OK

Ошибок не произошло


AccurateRip: сводка

Трек 1 точное извлечение (доверие 3) [013850A4]
Трек 2 точное извлечение (доверие 3) [C3B74445]
Трек 3 точное извлечение (доверие 3) [DFA3A1F3]
Трек 4 точное извлечение (доверие 3) [E1F342F8]
Трек 5 точное извлечение (доверие 3) [9FE216F6]
Трек 6 точное извлечение (доверие 3) [3EF16E20]
Трек 7 точное извлечение (доверие 3) [FAC603F5]
Трек 8 точное извлечение (доверие 3) [3B0AE517]
Трек 9 точное извлечение (доверие 3) [D9BD944B]
Трек 10 точное извлечение (доверие 3) [39A5E28A]
Трек 11 точное извлечение (доверие 3) [21B446BA]

Все треки извлечены точно

Конец отчёта

foobar2000 1.2 / Dynamic Range Meter 1.1.1
log date: 2015-09-13 17:11:28

Analyzed: Bryan Lee / Live & Dangerous

DR Peak RMS Duration Track

DR8 0.00 dB -9.56 dB 5:07 01-The Bounce
DR9 0.00 dB -10.25 dB 3:57 02-The Walk
DR8 0.00 dB -10.25 dB 7:40 03-Don't Take My Blindness for Weakness
DR9 0.00 dB -10.14 dB 5:32 04-Second Line Home
DR8 0.00 dB -8.86 dB 4:28 05-Rocket 88
DR8 0.00 dB -10.01 dB 5:14 06-Blues on My Mind
DR8 0.00 dB -9.31 dB 7:13 07-Hug Me Til it Hurts
DR7 0.00 dB -9.11 dB 6:41 08-Gave You What You Wanted
DR8 0.00 dB -9.72 dB 5:37 09-No Need To Worry
DR8 0.00 dB -10.35 dB 15:18 10-Six String Therapy
DR7 0.00 dB -9.01 dB 8:33 11-Memphis Bound

Number of tracks: 11
Official DR value: DR8

Samplerate: 44100 Hz
Channels: 2
Bits per sample: 16
Bitrate: 994 kbps
Codec: FLAC

Bryan Lee - Live & Dangerous (2005)

Bryan Lee - Live & Dangerous (2005)

All thanks to original releaser - lukya
Password: designol

DOWNLOAD LINKS
Buy Premium From My Links To Get Resumable Support & Max Speed & To Support Me


Links are Interchangeable - No Password - Single Extraction
Direct Download

Tags: Dangerous

Bryan Lee - Live & Dangerous (2005) Download via Hotfile Rapidshare Fileserve Megaupload & FileSonic, Bryan Lee - Live & Dangerous (2005) free torrent downloads included crack, serial, keygen.Bryan Lee - Live & Dangerous (2005) Fast Download via Rapidshare Hotfile Fileserve Filesonic Megaupload, Bryan Lee - Live & Dangerous (2005) Torrents and Emule Download or anything related.
Leave a Comment
Your Name:
E-Mail:
Add Comments:

Enter Code: