M:pire Of Evil - Crucified (2013) [Spiritual Beast IUCP-16162, Japan]

Download Now

M:pire Of Evil - Crucified (2013) [Spiritual Beast IUCP-16162, Japan]

M:pire Of Evil - Crucified (2013)
EAC | Flac(Image) + Cue + Log & MP3 CBR 320Kbps
Spiritual Beast, IUCP-16162 | ~ 345 or 119 Mb | Scans(600dpi, jpg) -> 55 Mb
Thrash Metal

"When a metal band features 2 ex members of Venom, one of whom was in the original line up then you can expect full on metal. Original member Mantas on guitar and Tony "demoltion man" Dolan on vocals/bass released their debut album Hell To The Holy in March 2012, a real fan pleaser and received some great reviews. On drum duties was Antton Lant but his departure has left the door open for JXN who plays on the follow up album Crucified..."


Tracklist:

01. Temples of Ice
02. Parasite
03. Kissing the Beast
04. Blackened Are the Priests
05. Carnivorous
06. Black Legions
07. Need to Kill
08. Wolverine
09. Crucified
10. Demone
11. Taking It All
12. Black Metal (Bonus Track)
13. Witching Hour (Bonus Track)

Musicians:

Mantas - Guitars
Marc "JXN" Jackson - Drums
Tony "Demolition Man" Dolan - Vocals, Bass


Exact Audio Copy V1.1 from 23. June 2015

EAC extraction logfile from 18. August 2015, 10:54

M-pire Of Evil / Crucified

Used drive : ATAPI iHAS122 W Adapter: 2 ID: 0

Read mode : Secure
Utilize accurate stream : Yes
Defeat audio cache : Yes
Make use of C2 pointers : No

Read offset correction

: 48
Overread into Lead-In and Lead-Out : No
Fill up missing offset samples with silence : Yes
Delete leading and trailing silent blocks : No
Null samples used in CRC calculations : Yes
Used interface
: Installed external ASPI interface

Used output format : User Defined Encoder
Selected bitrate : 1024 kBit/s
Quality : High
Add ID3 tag : No
Command line compressor : C:\Program Files\FLAC\flac.exe
Additional command line options : -V -8 -T "Date=%year%" -T "Genre=%genre%" -T"COMMENT=Ripped by Ilijan" -8 -V %source%

TOC of the extracted CD Track | Start | Length | Start sector | End sector
--1 | 0:00.00 | 4:00.02 | 0 | 18001 2 | 4:00.02 | 3:22.21 | 18002 | 33172 3 | 7:22.23 | 3:23.59 | 33173 | 48456 4 | 10:46.07 | 4:57.59 | 48457 | 70790 5 | 15:43.66 | 2:21.40 | 70791 | 81405 6 | 18:05.31 | 3:16.31 | 81406 | 96136 7 | 21:21.62 | 5:09.40 | 96137 | 119351 8 | 26:31.27 | 4:05.02 | 119352 | 137728 9 | 30:36.29 | 3:17.21 | 137729 | 152524
10 | 33:53.50 | 3:21.49 | 152525 | 167648
11 | 37:15.24 | 4:58.49 | 167649 | 190047
12 | 42:13.73 | 4:05.00 | 190048 | 208422
13 | 46:18.73 | 4:18.33 | 208423 | 227805

Range status and errors

Selected range Filename D:\ИЛИЯН\M-pire Of Evil - Crucified.wav Peak level 100.0 %
Extraction speed 3.8 X
Range quality 100.0 %
Test CRC 5484B442
Copy CRC 5484B442
Copy OK

No errors occurred


AccurateRip summary

Track 1 accurately ripped (confidence 1) [53346233] (AR v2)
Track 2 accurately ripped (confidence 1) 17F9F28 (AR v2)
Track 3 accurately ripped (confidence 1) [8C29655A] (AR v2)
Track 4 accurately ripped (confidence 1) [F6918960] (AR v2)
Track 5 accurately ripped (confidence 1) [4ED7D58D] (AR v2)
Track 6 accurately ripped (confidence 1) [89428DA6] (AR v2)
Track 7 accurately ripped (confidence 1) [5F0BA6D2] (AR v2)
Track 8 accurately ripped (confidence 1) [3803A212] (AR v2)
Track 9 accurately ripped (confidence 1) 098F471 (AR v2)
Track 10 accurately ripped (confidence 1) [9EB8CDF9] (AR v2)
Track 11 accurately ripped (confidence 1) [60BD95A7] (AR v2)
Track 12 accurately ripped (confidence 1) [E5FECDD9] (AR v2)
Track 13 accurately ripped (confidence 1) [881D4E94] (AR v2)

All tracks accurately ripped

End of status report

- CUETools DB Plugin V2.1.6

[CTDB TOCID: nUeyGO0seH4G7_..55dxQvZnuIs-] disk not present in database
Submit result: nUeyGO0seH4G7_..55dxQvZnuIs- has been uploaded

==== Log checksum B0271B2800E2A05F3847E504296118A48C9883002E5F0A7C3A3DC1E84948CEC4 ====

foobar2000 1.2.9 / Dynamic Range Meter 1.1.1
log date: 2015-09-12 17:45:25

Analyzed: M-pire Of Evil / Crucified

DR Peak RMS Duration Track

DR8 -0.01 dB -9.95 dB 4:00 01-Temples of Ice
DR8 -0.01 dB -9.09 dB 3:22 02-Parasite
DR9 -0.01 dB -9.58 dB 3:24 03-Kissing the Beast
DR9 -0.01 dB -10.57 dB 4:58 04-Blackened Are the Priests
DR8 -0.01 dB -8.76 dB 2:22 05-Carnivorous
DR8 -0.01 dB -9.71 dB 3:16 06-Black Legions
DR8 -0.01 dB -10.55 dB 5:10 07-Need to Kill
DR8 -0.01 dB -9.71 dB 4:05 08-Wolverine
DR9 -0.01 dB -10.32 dB 3:17 09-Crucified
DR7 -0.01 dB -8.89 dB 3:22 10-Demone
DR8 -0.01 dB -8.78 dB 4:59 11-Taking It All
DR7 0.00 dB -9.09 dB 4:05 12-Black Metal (Bonus Track)
DR7 0.00 dB -8.47 dB 4:18 13-Witching Hour (Bonus Track)

Number of tracks: 13
Official DR value: DR8

Samplerate: 44100 Hz
Channels: 2
Bits per sample: 16
Bitrate: 927 kbps
Codec: FLAC

[CUETools log; Date: 13.09.2015 11:56:59; Version: 2.1.4]
[CTDB TOCID: nUeyGO0seH4G7_..55dxQvZnuIs-] found.
Track | CTDB Status
1 | (1/1) Accurately ripped
2 | (1/1) Accurately ripped
3 | (1/1) Accurately ripped
4 | (1/1) Accurately ripped
5 | (1/1) Accurately ripped
6 | (1/1) Accurately ripped
7 | (1/1) Accurately ripped
8 | (1/1) Accurately ripped
9 | (1/1) Accurately ripped
10 | (1/1) Accurately ripped
11 | (1/1) Accurately ripped
12 | (1/1) Accurately ripped
13 | (1/1) Accurately ripped
[AccurateRip ID: 0017ac8a-00edd9f3-b60bdd0d] found.
Track [ CRC | V2 ] Status
01 [89747783|53346233] (0+1/1) Accurately ripped
02 [e2eb7595|b17f9f28] (0+1/1) Accurately ripped
03 [1544f827|8c29655a] (0+1/1) Accurately ripped
04 [5277974d|f6918960] (0+1/1) Accurately ripped
05 [4eff206a|4ed7d58d] (0+1/1) Accurately ripped
06 [49b1efc7|89428da6] (0+1/1) Accurately ripped
07 [c7ea5555|5f0ba6d2] (0+1/1) Accurately ripped
08 [895d9651|3803a212] (0+1/1) Accurately ripped
09 [5fc7bba8|b098f471] (0+1/1) Accurately ripped
10 [a560c04f|9eb8cdf9] (0+1/1) Accurately ripped
11 [9d1c3aeb|60bd95a7] (0+1/1) Accurately ripped
12 [937fe315|e5fecdd9] (0+1/1) Accurately ripped
13 [0fefeade|881d4e94] (0+1/1) Accurately ripped

Track Peak [ CRC32 ] [W/O NULL] [ LOG ]
-- 100,0 [5484B442] [A8FCD0B5] CRC32
01 99,9 [74C3B22D] [33EF1B61]
02 99,9 [15087A52] [74629563]
03 99,9 [00FFFF6A] [6ED13B1C]
04 99,9 [79047D79] [0B182016]
05 99,9 [7A623443] [D9B11029]
06 99,9 [9CA60A93] [9895DCE1]
07 99,9 [8FE9DD14] [57C86E60]
08 99,9 5EBDE62 [33DB0EAF]
09 99,9 BD96DF9 1897CD2
10 99,9 [0056D2CA] [41EFEF82]
11 99,9 [2168CA28] [42E46CB6]
12 100,0 [4F83CA5D] [8796F5C5]
13 100,0 [A77BB98C] [05B97A2F]

M:pire Of Evil - Crucified (2013) [Spiritual Beast IUCP-16162, Japan]

All thanks go to ИЛИЯH

Download M:pire Of Evil - Crucified (2013):


DOWNLOAD LINKS
Buy Premium From My Links To Get Resumable Support & Max Speed & To Support Me


Links are Interchangeable - No Password - Single Extraction
Direct Download

Tags: Crucified, Spiritual

M:pire Of Evil - Crucified (2013) [Spiritual Beast IUCP-16162, Japan] Download via Hotfile Rapidshare Fileserve Megaupload & FileSonic, M:pire Of Evil - Crucified (2013) [Spiritual Beast IUCP-16162, Japan] free torrent downloads included crack, serial, keygen.M:pire Of Evil - Crucified (2013) [Spiritual Beast IUCP-16162, Japan] Fast Download via Rapidshare Hotfile Fileserve Filesonic Megaupload, M:pire Of Evil - Crucified (2013) [Spiritual Beast IUCP-16162, Japan] Torrents and Emule Download or anything related.
Leave a Comment
Your Name:
E-Mail:
Add Comments:

Enter Code: