Hans Vonk (1942-2004): Johannes Brahms- The Final Sessions (2005) {Hybrid-SACD // EAC Rip}

Download Now


Hans Vonk (1942-2004): Johannes Brahms- The Final Sessions (2005) {Hybrid-SACD // EAC Rip}
Hans Vonk (1942-2004): Johannes Brahms- The Final Sessions
Netherlands Radio Symphony Orchestra / Male Chorus of the Netherlands Radio Choir
EAC+LOG+CUE | FLAC: 173 MB | Full Artwork: 112 MB | 5% Recovery Info
Label/Cat#: Pentatone # PTC 5186 045 | Country/Year: Netherlands 2005
Genre: Classical | Style: Romantic

""...While it may appear that this disc is a memorial worth only one playing, it is instead a set of beautiful readings of three essential Brahms works, fully in the Central European tradition. Moreover, it is not marmorial, but a real 'feel-good' and life-enhancing disc. What better memorial could a conductor have?" ~sa-cd.net"

Exact Audio Copy V1.0 beta 3 from 29. August 2011

EAC extraction logfile from 1. May 2014, 12:45

Hans Vonk, Netherlands RSO / The Final Sessions

Used drive : PIONEER BD-RW BDR-206 Adapter: 0 ID: 2

Read mode : Secure
Utilize accurate stream : Yes
Defeat audio cache : Yes
Make use of C2 pointers : No

Read offset correction

: 667
Overread into Lead-In and Lead-Out : No
Fill up missing offset samples with silence : Yes
Delete leading and trailing silent blocks : No
Null samples used in CRC calculations : Yes
Used interface
: Native Win32 interface for Win NT & 2000

Used output format : User Defined Encoder
Selected bitrate : 1024 kBit/s
Quality : High
Add ID3 tag : Yes
Command line compressor : C:\Program Files\FLAC\flac.exe
Additional command line options : -5 -T "Artist=%artist%" -T "Title=%title%" -T "Album=%albumtitle%" -T "Date=%year%" -T "Tracknumber=%tracknr%" -T "Genre=%genre%" %source% -o %dest%

TOC of the extracted CD Track | Start | Length | Start sector | End sector
--1 | 0:00.00 | 11:45.41 | 0 | 52915 2 | 11:45.41 | 12:45.14 | 52916 | 110304 3 | 24:30.55 | 2:03.17 | 110305 | 119546 4 | 26:33.72 | 1:21.01 | 119547 | 125622 5 | 27:54.73 | 1:05.07 | 125623 | 130504 6 | 29:00.05 | 1:49.16 | 130505 | 138695 7 | 30:49.21 | 1:57.29 | 138696 | 147499 8 | 32:46.50 | 1:00.68 | 147500 | 152067 9 | 33:47.43 | 1:23.42 | 152068 | 158334
10 | 35:11.10 | 2:32.22 | 158335 | 169756
11 | 37:43.32 | 1:06.20 | 169757 | 174726
12 | 38:49.52 | 3:52.46 | 174727 | 192172

Range status and errors

Selected range Filename F:\=== VINYL RIPS ===\=== EAC===\X FRESH RIP\Hans Vonk - The Final Sessions.wav Peak level 98.6 %
Extraction speed 6.8 X
Range quality 100.0 %
Test CRC 354A23DE
Copy CRC 354A23DE
Copy OK

No errors occurred


AccurateRip summary

Track 1 accurately ripped (confidence 1) [E004BEAB] (AR v2)
Track 2 accurately ripped (confidence 1) [A8BB55AF] (AR v2)
Track 3 accurately ripped (confidence 1) [D834DB16] (AR v2)
Track 4 accurately ripped (confidence 1) 6FAC685 (AR v2)
Track 5 accurately ripped (confidence 1) [C8E77675] (AR v2)
Track 6 accurately ripped (confidence 1) [D9ADC9E2] (AR v2)
Track 7 accurately ripped (confidence 1) [902407F3] (AR v2)
Track 8 accurately ripped (confidence 1) [F2C6EFA1] (AR v2)
Track 9 accurately ripped (confidence 1) [26746699] (AR v2)
Track 10 accurately ripped (confidence 1) [259F41D5] (AR v2)
Track 11 accurately ripped (confidence 1) [988E8AE0] (AR v2)
Track 12 accurately ripped (confidence 1) [A35C2976] (AR v2)

All tracks accurately ripped

End of status report

- CUETools DB Plugin V2.1.3

[CTDB TOCID: Iiy2lcPfAl1ZGfoITgasyz1gycw-] disk not present in database, Submit result: Iiy2lcPfAl1ZGfoITgasyz1gycw- has been uploaded

==== Log checksum 23710149477E34E4C87326337140CB071D2DA087F38D68ED556A4582EA7B9F13 ====

Dynamic Range measured using Foobar DR Meter plugin

foobar2000 1.1.11 / Dynamic Range Meter 1.1.1
log date: 2014-05-31 18:58:17

Analyzed: Netherlands Radio Symphony Orchestra, Conducted By Hans Vonk / Hans Vonk 1942-2004 The

DR Peak RMS Duration Track

DR13 -0.08 dB -19.04 dB 11:48 01-Academic Festival Overture, Op. 80
DR16 -5.37 dB -26.84 dB 12:45 02-Rhapsody For Alto, Male Chorus And Orchestra, Op. 53
DR11 -11.11 dB -26.54 dB 2:03 03-Variations On A Theme By Haydn, Op. 56a - Variation 1
DR11 -8.36 dB -24.24 dB 1:21 04-Variations On A Theme By Haydn, Op. 56a - Variation 2
DR14 -7.64 dB -25.20 dB 1:05 05-Variations On A Theme By Haydn, Op. 56a - Variation 3
DR13 -13.35 dB -30.21 dB 1:49 06-Variations On A Theme By Haydn, Op. 56a - Variation 4
DR12 -10.21 dB -27.47 dB 1:57 07-Variations On A Theme By Haydn, Op. 56a - Variation 5
DR14 -11.13 dB -29.26 dB 1:01 08-Variations On A Theme By Haydn, Op. 56a - Variation 6
DR12 -4.58 dB -19.72 dB 1:24 09-Variations On A Theme By Haydn, Op. 56a - Variation 7
DR14 -7.76 dB -27.30 dB 2:32 10-Variations On A Theme By Haydn, Op. 56a - Variation 8
DR10 -16.71 dB -31.94 dB 1:06 11-Variations On A Theme By Haydn, Op. 56a - Variation 9
DR12 -3.36 dB -20.60 dB 3:53 12-Variations On A Theme By Haydn, Op. 56a - Variation 10

Number of tracks: 12
Official DR value: DR13

Samplerate: 88200 Hz
Channels: 2
Bits per sample: 24
Bitrate: 2332 kbps
Codec: FLAC

SACD Info:

Hans Vonk (1942-2004): Johannes Brahms- The Final Sessions

Label: Pentatone
Catalog#: PTC 5186 045
Format: Hybrid-SACD, Album, Stereo, Multichannel
Country: Netherlands
Released: 2005
Genre: Classical
Style: Romantic

Tracklist:

1 Akademische Festouvertüre op. 80 11:46
2 Rhapsodie für Alt, Männerchor und Orchester op. 53 (Yvonne Naef) 12:45
3 Variationen über ein Thema von Joseph Haydn op. 56a - Variation 1 2:03
4 - Variation 2 1:21
5 - Variation 3 1:05
6 - Variation 4 1:49
7 - Variation 5 1:57
8 - Variation 6 1:01
9 - Variation 7 1:24
10 - Variation 8 2:32
11 - Variation 9 1:06
12 - Variation 10 3:53

Netherlands Radio Symphony Orchestra
Male Chorus of the Netherlands Radio Choir
Hans Vonk (conductor)
DOWNLOAD LINKS
Buy Premium From My Links To Get Resumable Support & Max Speed & To Support Me


Links are Interchangeable - No Password - Single Extraction
Direct Download

Tags: Johannes, Brahms, Sessions, Hybrid

Hans Vonk (1942-2004): Johannes Brahms- The Final Sessions (2005) {Hybrid-SACD // EAC Rip} Download via Hotfile Rapidshare Fileserve Megaupload & FileSonic, Hans Vonk (1942-2004): Johannes Brahms- The Final Sessions (2005) {Hybrid-SACD // EAC Rip} free torrent downloads included crack, serial, keygen.Hans Vonk (1942-2004): Johannes Brahms- The Final Sessions (2005) {Hybrid-SACD // EAC Rip} Fast Download via Rapidshare Hotfile Fileserve Filesonic Megaupload, Hans Vonk (1942-2004): Johannes Brahms- The Final Sessions (2005) {Hybrid-SACD // EAC Rip} Torrents and Emule Download or anything related.
Leave a Comment
Your Name:
E-Mail:
Add Comments:

Enter Code: