Royal Hunt - Devil's Dozen (2015) [CD + DVD, Japanese Limited Edition]

Download Now

Royal Hunt - Devil's Dozen (2015) [CD + DVD, Japanese Limited Edition]

Royal Hunt - Devil's Dozen (2015)
EAC | Flac(Image) + Cue + Log & MP3 CBR 320Kbps
Avalon/Marquee, MIZP-30012 | ~ 386 or 120 Mb | Scans(600dpi, jpg) -> 78 Mb
DVD5: NTSC 16:9 (720x480) VBR | AC3, 192 Kbps, 48.0 KHz, 2 ch -> 2.47 Gb
Melodic Progressive Metal

"There are few bands, with a better than 25 years career, that have been as consistent in their sound and output as Denmark's Royal Hunt. Sure, they've had their share of personnel changes, significantly in the vocalist position, yet they carry on with increasing success. Recently, some of that success comes from one simple yet significant change..."


Tracklist CD:

01. So Right So Wrong
02. May You Never (Walk Alone)
03. Heart on a Platter
04. A Tear in the Rain
05. Until the Day
06. Riches to Rags
07. Way Too Late
08. Monochrome (Bonus Track)

Musicians:

Jonas Larsen - Guitars
D.C. Cooper - Vocals
Andreas Passmark - Bass
André Andersen - Keyboards
Andreas "Habo" Johansson - Session Drums


Exact Audio Copy V1.1 from 23. June 2015

EAC extraction logfile from 24. August 2015, 12:20

Royal Hunt / Devil's Dozen

Used drive : ATAPI iHAS122 W Adapter: 2 ID: 0

Read mode : Secure
Utilize accurate stream : Yes
Defeat audio cache : Yes
Make use of C2 pointers : No

Read offset correction

: 48
Overread into Lead-In and Lead-Out : No
Fill up missing offset samples with silence : Yes
Delete leading and trailing silent blocks : No
Null samples used in CRC calculations : Yes
Used interface
: Installed external ASPI interface

Used output format : User Defined Encoder
Selected bitrate : 1024 kBit/s
Quality : High
Add ID3 tag : No
Command line compressor : C:\Program Files\FLAC\flac.exe
Additional command line options : -V -8 -T "Date=%year%" -T "Genre=%genre%" -T"COMMENT=Ripped by Ilijan" -8 -V %source%

TOC of the extracted CD Track | Start | Length | Start sector | End sector
--1 | 0:00.00 | 7:23.17 | 0 | 33241 2 | 7:23.17 | 7:29.31 | 33242 | 66947 3 | 14:52.48 | 6:53.11 | 66948 | 97933 4 | 21:45.59 | 5:50.07 | 97934 | 124190 5 | 27:35.66 | 6:36.74 | 124191 | 153964 6 | 34:12.65 | 5:45.03 | 153965 | 179842 7 | 39:57.68 | 6:39.07 | 179843 | 209774 8 | 46:37.00 | 4:20.05 | 209775 | 229279

Range status and errors

Selected range Filename D:\ИЛИЯН\Royal Hunt - Devil's Dozen.wav Peak level 99.9 %
Extraction speed 3.7 X
Range quality 99.9 %
Test CRC A9132F12
Copy CRC A9132F12
Copy OK

No errors occurred


AccurateRip summary

Track 1 not present in database
Track 2 not present in database
Track 3 not present in database
Track 4 not present in database
Track 5 not present in database
Track 6 not present in database
Track 7 not present in database
Track 8 not present in database

None of the tracks are present in the AccurateRip database

End of status report

- CUETools DB Plugin V2.1.6

[CTDB TOCID: RACZ6TxhlS5aDLMuJ.s2cnNkyuM-] found
Submit result: RACZ6TxhlS5aDLMuJ.s2cnNkyuM- has been confirmed
Track | CTDB Status
1 | (1/1) Accurately ripped
2 | (1/1) Accurately ripped
3 | (1/1) Accurately ripped
4 | (1/1) Accurately ripped
5 | (1/1) Accurately ripped
6 | (1/1) Accurately ripped
7 | (1/1) Accurately ripped
8 | (1/1) Accurately ripped

==== Log checksum F3AE403E033B6C1F39066BAB44A1E52CDD85A6BD3A8B5E833A529EBC36DCB042 ====

foobar2000 1.2.9 / Dynamic Range Meter 1.1.1
log date: 2015-09-12 07:08:13

Analyzed: Royal Hunt / Devil's Dozen

DR Peak RMS Duration Track

DR6 -0.01 dB -7.16 dB 7:23 01-So Right, So Wrong
DR5 -0.01 dB -6.85 dB 7:29 02-May You Never (Walk Alone)
DR5 -0.01 dB -5.75 dB 6:53 03-Heart On A Platter
DR5 -0.01 dB -6.61 dB 5:50 04-A Tear In The Rain
DR5 -0.01 dB -7.08 dB 6:37 05-Until The Day
DR5 -0.01 dB -6.65 dB 5:45 06-Riches To Rags
DR5 -0.01 dB -6.18 dB 6:39 07-Way Too Late
DR7 -0.01 dB -8.10 dB 4:20 08-Monochrome (Bonus Track)

Number of tracks: 8
Official DR value: DR5

Samplerate: 44100 Hz
Channels: 2
Bits per sample: 16
Bitrate: 1029 kbps
Codec: FLAC

[CUETools log; Date: 12.09.2015 7:03:27; Version: 2.1.4]
[CTDB TOCID: RACZ6TxhlS5aDLMuJ.s2cnNkyuM-] found.
Track | CTDB Status
1 | (5/5) Accurately ripped
2 | (5/5) Accurately ripped
3 | (5/5) Accurately ripped
4 | (5/5) Accurately ripped
5 | (5/5) Accurately ripped
6 | (5/5) Accurately ripped
7 | (5/5) Accurately ripped
8 | (5/5) Accurately ripped
[AccurateRip ID: 0010b60a-006dee4f-7f0bf108] disk not present in database.

Track Peak [ CRC32 ] [W/O NULL] [ LOG ]
-- 99,9 [A9132F12] [66D1F624] CRC32
01 99,9 [37C058FA] [7BD38487]
02 99,9 [96358DF3] [98E0D708]
03 99,9 [9EC26953] [3775038B]
04 99,9 [DBD83D77] [5541D621]
05 99,9 [5C10180D] [02C01436]
06 99,9 [648AB128] [ABF522F7]
07 99,9 [8309A122] [92388741]
08 99,9 [7C4B5F6B] [8106A326]

Royal Hunt - Devil's Dozen (2015) [CD + DVD, Japanese Limited Edition]

Tracklist DVD:

Royal Hunt 2014 World Tour "A Life To Die For" Documentary

Title: Royal Hunt 2015 - Devil's Dozen - DVD
Size: 2.34 Gb ( 2454346,00 KBytes ) - DVD-5
Enabled regions: 1, 2, 3, 4, 5, 6, 7, 8

VTS_01 :
Play Length: 00:33:48
Video: NTSC 16:9 (720x480) VBR, Auto Letterboxed
Audio:
English (Dolby AC3, 2 ch)
Subtitles:
Japanese

Royal Hunt - Devil's Dozen (2015) [CD + DVD, Japanese Limited Edition]

Royal Hunt - Devil's Dozen (2015) [CD + DVD, Japanese Limited Edition]

Royal Hunt - Devil's Dozen (2015) [CD + DVD, Japanese Limited Edition]

Royal Hunt - Devil's Dozen (2015) [CD + DVD, Japanese Limited Edition]

Royal Hunt - Devil's Dozen (2015) [CD + DVD, Japanese Limited Edition]

DOWNLOAD LINKS:
Buy Premium To Support Me & Get Resumable Support & Max Speed


Links are Interchangeable - No Password - Single Extraction
Direct Download

Tags: Japanese, Limited

Royal Hunt - Devil's Dozen (2015) [CD + DVD, Japanese Limited Edition] Download via Hotfile Rapidshare Fileserve Megaupload & FileSonic, Royal Hunt - Devil's Dozen (2015) [CD + DVD, Japanese Limited Edition] free torrent downloads included crack, serial, keygen.Royal Hunt - Devil's Dozen (2015) [CD + DVD, Japanese Limited Edition] Fast Download via Rapidshare Hotfile Fileserve Filesonic Megaupload, Royal Hunt - Devil's Dozen (2015) [CD + DVD, Japanese Limited Edition] Torrents and Emule Download or anything related.
Leave a Comment
Your Name:
E-Mail:
Add Comments:

Enter Code: